<?xml version="1.0" standalone="no"?>
<!DOCTYPE svg PUBLIC "-//W3C//DTD SVG 1.1//EN" "http://www.w3.org/Graphics/SVG/1.1/DTD/svg11.dtd" >
<svg xmlns="http://www.w3.org/2000/svg">
<metadata></metadata>
<defs>
<font id="vesper_iconsregular" horiz-adv-x="1792" >
<font-face units-per-em="1792" ascent="1536" descent="-256" />
<missing-glyph horiz-adv-x="448" />
<glyph unicode=" "  horiz-adv-x="448" />
<glyph unicode="&#x09;" horiz-adv-x="448" />
<glyph unicode="&#xa0;" horiz-adv-x="448" />
<glyph unicode="&#xa8;" />
<glyph unicode="&#xa9;" />
<glyph unicode="&#xae;" />
<glyph unicode="&#xb4;" />
<glyph unicode="&#xc6;" />
<glyph unicode="&#x2000;" horiz-adv-x="770" />
<glyph unicode="&#x2001;" horiz-adv-x="1541" />
<glyph unicode="&#x2002;" horiz-adv-x="770" />
<glyph unicode="&#x2003;" horiz-adv-x="1541" />
<glyph unicode="&#x2004;" horiz-adv-x="513" />
<glyph unicode="&#x2005;" horiz-adv-x="385" />
<glyph unicode="&#x2006;" horiz-adv-x="256" />
<glyph unicode="&#x2007;" horiz-adv-x="256" />
<glyph unicode="&#x2008;" horiz-adv-x="192" />
<glyph unicode="&#x2009;" horiz-adv-x="308" />
<glyph unicode="&#x200a;" horiz-adv-x="85" />
<glyph unicode="&#x202f;" horiz-adv-x="308" />
<glyph unicode="&#x205f;" horiz-adv-x="385" />
<glyph unicode="&#x2122;" />
<glyph unicode="&#x25fc;" horiz-adv-x="500" d="M0 0z" />
<glyph unicode="&#xf000;" horiz-adv-x="1664" d="M832 1408q-169 0 -323.5 -66t-265.5 -177t-177 -265.5t-66 -323.5t66 -323.5t177 -265.5t265.5 -177t323.5 -66t323.5 66t265.5 177t177 265.5t66 323.5t-66 323.5t-177 265.5t-265.5 177t-323.5 66zM960 896l64 64l128 -128l128 128l64 -64l-128 -128l128 -128l-64 -64 l-128 128l-128 -128l-64 64l128 128zM832 256l-160 -160l-160 160l-128 -128l-64 64l195 192l157 -160l160 160l160 -160l160 160l192 -192l-64 -64l-128 128l-160 -160zM704 896l-128 -128l128 -128l-64 -64l-128 128l-128 -128l-64 64l128 128l-128 128l64 64l128 -128 l128 128z" />
<glyph unicode="&#xf001;" horiz-adv-x="1152" d="M802 1184q0 -93 -66 -159t-160 -66q-92 0 -157.5 66t-65.5 159q0 92 65.5 158t157.5 66q94 0 160 -66t66 -158zM795 9l-142 -142q-24 -24 -31 -50.5t-0.5 -47.5t22.5 -39q21 -24 61.5 -22.5t72.5 33.5l268 268q32 32 40 71.5t-3.5 73t-36.5 59.5l-176 174l-227 -227z M843 451h-533v163l-162 -162q-34 -30 -68 -28t-58 27q-21 22 -21.5 50.5t26.5 58.5l223 223l115 116v-3q24 20 70 20h285q45 0 68 -20v3l116 -116l224 -223q26 -30 25.5 -58.5t-20.5 -50.5q-24 -25 -58.5 -27t-69.5 28l-162 162v-163zM361 9l142 -142q24 -24 31 -50.5 t0.5 -47.5t-22.5 -39q-21 -24 -61.5 -22.5t-72.5 33.5l-268 268q-32 32 -40 71.5t3.5 73t36.5 59.5l176 174l229 -227z" />
<glyph unicode="&#xf002;" d="M793 768h-537q-51 0 -94.5 -9.5t-81 -30t-59 -59.5t-21.5 -93q0 -69 42.5 -148t110.5 -144.5t161 -109t185 -42.5q152 2 270 120q-45 -58 -55 -130.5t11 -137t57 -120t83 -88t90 -32.5q64 0 111.5 21.5t75 60t40.5 86t13 103.5q0 83 -26.5 170t-69.5 148zM841 806 l144 532q22 83 73.5 140.5t129.5 57.5q81 0 165 -73.5t139 -191.5t55 -235q0 -109 -51 -197t-146 -142q83 33 162.5 13.5t141.5 -68t100 -111.5t38 -118q0 -30 -13 -64t-38.5 -65.5t-70 -52.5t-99.5 -21q-101 0 -211.5 53.5t-174.5 129.5z" />
<glyph unicode="&#xf003;" horiz-adv-x="1664" d="M561 847v-224h224v224h-224zM881 847v-224h224v224h-224zM1201 847v-224h224v224h-224zM1201 527v-224h224v224h-224zM881 527v-224h224v224h-224zM881 207v-224h224v224h-224zM561 207v-224h224v224h-224zM561 527v-224h224v224h-224zM241 207v-224h224v224h-224z M241 527v-224h224v224h-224zM512 1161v206q0 16 -9.5 28.5t-22.5 12.5h-64q-13 0 -22.5 -12.5t-9.5 -28.5v-206q0 -17 9.5 -28.5t22.5 -12.5h64q14 1 23 12.5t9 28.5zM128 -256h1408q52 0 89 36t39 88v1288q0 51 -38 87.5t-90 36.5h-192v-96q0 -63 -21 -95.5t-75 -32.5h-64 q-96 1 -96 127v97h-512v-97q0 -126 -96 -127h-64q-54 0 -75 32.5t-21 95.5v96h-192q-52 0 -90 -36.5t-38 -87.5v-1288q0 -51 37.5 -87t90.5 -37zM128 960h1408v-1088h-1408v1088zM1280 1161v206q0 16 -9.5 28.5t-22.5 12.5h-64q-13 0 -22.5 -12.5t-9.5 -28.5v-206 q0 -17 9.5 -28.5t22.5 -12.5h64q14 1 23 12.5t9 28.5z" />
<glyph unicode="&#xf004;" horiz-adv-x="1664" d="M1088 640h-184q-29 32 -72 32h-5l-352 352q-19 19 -45.5 19t-45.5 -19t-19 -45.5t19 -45.5l352 -352v-5q0 -40 28 -68t68 -28q43 0 72 32h184q26 0 45 19t19 45t-19 45t-45 19zM832 1152q26 0 45 -19t19 -45t-19 -45t-45 -19t-45 19t-19 45t19 45t45 19zM832 128 q26 0 45 -19t19 -45t-19 -45t-45 -19t-45 19t-19 45t19 45t45 19zM320 640q26 0 45 -19t19 -45t-19 -45t-45 -19t-45 19t-19 45t19 45t45 19zM1344 640q26 0 45 -19t19 -45t-19 -45t-45 -19t-45 19t-19 45t19 45t45 19zM832 1408q-169 0 -323.5 -66t-265.5 -177t-177 -265.5 t-66 -323.5t66 -323.5t177 -265.5t265.5 -177t323.5 -66t323.5 66t265.5 177t177 265.5t66 323.5t-66 323.5t-177 265.5t-265.5 177t-323.5 66zM832 1280q143 0 273.5 -55.5t225 -150t150 -225t55.5 -273.5t-55.5 -273.5t-150 -225t-225 -150t-273.5 -55.5t-273.5 55.5 t-225 150t-150 225t-55.5 273.5t55.5 273.5t150 225t225 150t273.5 55.5z" />
<glyph unicode="&#xf005;" horiz-adv-x="1536" d="M768 992q26 0 45 -19t19 -45v-192l266 -207v0q22 -20 22 -49q0 -26 -19 -45t-45 -19t-44 18l-279 216q-29 19 -29 54v224q0 26 19 45t45 19zM768 1408q-209 0 -385.5 -103t-279.5 -279.5t-103 -385.5t103 -385.5t279.5 -279.5t385.5 -103t385.5 103t279.5 279.5 t103 385.5t-103 385.5t-279.5 279.5t-385.5 103zM768 1184q148 0 273 -73t198 -198t73 -273t-73 -273t-198 -198t-273 -73t-273.5 73t-198 198t-72.5 273t72.5 273t198 198t273.5 73z" />
<glyph unicode="&#xf006;" horiz-adv-x="1280" d="M1280 1472v-1600q0 -36 -18 -64q-16 -30 -46 -46q-28 -18 -64 -18t-64 18q-29 17 -46 46q-18 28 -18 64v512h-224q-13 0 -22 10q-19 19 4 145q4 25 15.5 101.5t21.5 143t28 161.5t37 171.5t47.5 158t59.5 136t73 90t88 35.5h64q26 0 45 -19t19 -45zM640 1472v-640 q0 -38 -8 -65t-19 -42.5t-32 -27.5t-37 -17t-46.5 -13.5t-49.5 -15.5v-779q0 -36 -18 -64q-17 -29 -46 -46q-29 -18 -64 -18q-36 0 -64 18q-29 17 -46 46q-18 28 -18 64v779q-19 7 -49.5 15.5t-46.5 13.5t-37 17t-32 27.5t-19 42.5t-8 65v640q2 28 19 45t45 19q28 -2 45 -19 q19 -19 19 -45v-416q0 -26 19 -45t45 -19t45 19t19 45v416q2 28 19 45t45 19q28 -2 45 -19t19 -45v-416q0 -26 19 -45t45 -19t45 19t19 45v416q2 28 19 45t45 19q28 -2 45 -19t19 -45z" />
<glyph unicode="&#xf007;" horiz-adv-x="1664" d="M832 1408q169 0 323 -66t265.5 -177.5t177.5 -265.5t66 -323t-66 -323.5t-177.5 -265.5t-265.5 -177t-323 -66t-323 66t-265.5 177t-177.5 265.5t-66 323.5t66 323t177.5 265.5t265.5 177.5t323 66zM607 143q122 111 225 113q102 0 225 -113q20 -19 44.5 -14.5t38.5 29.5 q30 50 -12 89q-148 137 -296 137t-296 -137q-42 -40 -12 -89q15 -25 39 -29.5t44 14.5zM384 704q0 -53 37.5 -90.5t90.5 -37.5t90.5 37.5t37.5 90.5t-37.5 90.5t-90.5 37.5t-90.5 -37.5t-37.5 -90.5zM1152 576q53 0 90.5 37.5t37.5 90.5t-37.5 90.5t-90.5 37.5t-90.5 -37.5 t-37.5 -90.5t37.5 -90.5t90.5 -37.5z" />
<glyph unicode="&#xf008;" horiz-adv-x="1536" d="M806 209l58 58l-149 149l-58 -58v-68h81v-81h68zM1137 797q0 7 -4 10q-3 4 -10 4q-3 0 -5 -1q-4 -2 -5 -3l-344 -344q-1 -1 -3 -5q-1 -2 -1 -5q0 -7 4 -11q3 -3 10 -3h5q4 2 6 4l343 343q3 3 3 5q1 2 1 6zM1103 919l264 -264l-527 -527h-264v264zM1536 858q0 -16 -6 -31 t-17 -26l-106 -105l-263 263l105 105q8 9 26 18q15 6 31 6t31 -6q18 -9 27 -18l149 -148q11 -13 17 -27q6 -15 6 -31zM128 0h1024v320l128 128v-480q0 -25 -13 -49q-14 -21 -35 -34q-20 -13 -48 -13h-1088q-28 0 -48 13q-21 13 -35 34q-11 22 -13 49v1344q2 28 13 48 q13 22 35 35q23 13 48 13h640q29 0 58 -10q29 -8 59 -24q24 -12 47 -34l251 -253l-93 -93l-249 256q-10 11 -37 20q-34 10 -52 10h-592v-1280z" />
<glyph unicode="&#xf009;" horiz-adv-x="1536" d="M33 977q-18 9 -25.5 19.5t-7.5 28.5t7.5 28.5t25.5 19.5l637 318q39 19 98 17q59 2 98 -17l637 -318q18 -9 25.5 -19.5t7.5 -28.5t-7.5 -28.5t-25.5 -19.5l-637 -318q-39 -19 -98 -17q-59 -2 -98 17zM33 207q-18 9 -25.5 19.5t-7.5 28.5t7.5 28.5t25.5 19.5l160 80 l477 -238q40 -19 98 -16q58 -3 98 16l477 238l160 -80q18 -9 25.5 -19.5t7.5 -28.5t-7.5 -28.5t-25.5 -19.5l-637 -318q-40 -19 -98 -16q-58 -3 -98 16zM33 591q-18 9 -25.5 19.5t-7.5 28.5t7.5 28.5t25.5 19.5l160 80l477 -238q40 -19 98 -16q58 -3 98 16l477 238l160 -80 q18 -9 25.5 -19.5t7.5 -28.5t-7.5 -28.5t-25.5 -19.5l-637 -318q-40 -19 -98 -16q-58 -3 -98 16z" />
<glyph unicode="&#xf00a;" d="M198 384h154v512h-282q-28 0 -49 21t-21 49v244q0 28 21 49t49 21h282v64q0 14 9 23t23 9t23 -9t9 -23v-64h448v64q0 14 9 23t23 9t23 -9t9 -23v-64h154q29 0 49.5 -20.5t20.5 -49.5v-244q0 -28 -21 -49t-49 -21h-154v-64h448v512q0 14 9 23t23 9t23 -9t9 -23v-512h282 q29 0 49.5 -20.5t20.5 -49.5v-244q0 -28 -21 -49t-49 -21h-282v-512q0 -14 -9 -23t-23 -9t-23 9t-9 23v512h-448v-64h282q28 0 49 -21t21 -49v-244q0 -28 -21 -49t-49 -21h-282v-64q0 -14 -9 -23t-23 -9t-23 9t-9 23v64h-448v-64q0 -14 -9 -23t-23 -9t-23 9t-9 23v64h-154 q-28 0 -49 21t-21 49v244q0 28 21 49t49 21zM864 384v64h-154q-28 0 -49 21t-21 49v244q0 29 20.5 49.5t49.5 20.5h154v64h-448v-512h448z" />
<glyph unicode="&#xf00b;" horiz-adv-x="1920" d="M1408 1238v-250q0 -18 -9 -30t-23 -12h-1344q-14 0 -23 12t-9 30v250q0 18 9 30t23 12h1344q14 0 23 -12t9 -30zM1920 838v-250q0 -18 -9 -30t-23 -12h-1344q-14 0 -23 12t-9 30v250q0 16 9 28t23 14h1344q14 -2 23 -14t9 -28zM1152 436v-250q0 -17 -9.5 -29.5 t-22.5 -12.5h-832q-12 0 -22 13t-10 29v250q0 18 10 30t22 12h832q14 0 23 -12t9 -30zM1664 36v-250q0 -17 -9.5 -29.5t-22.5 -12.5h-832q-12 0 -22 13t-10 29v250q0 16 10 29t22 13h832q13 0 22.5 -12.5t9.5 -29.5z" />
<glyph unicode="&#xf00c;" horiz-adv-x="1664" d="M832 1408q-169 0 -323.5 -66t-265.5 -177t-177 -265.5t-66 -323.5t66 -323.5t177 -265.5t265.5 -177t323.5 -66t323.5 66t265.5 177t177 265.5t66 323.5t-66 323.5t-177 265.5t-265.5 177t-323.5 66zM832 -128q-113 0 -221 36q16 8 39.5 30t44.5 23q20 1 40 5t46.5 11.5 t42.5 11.5q13 3 82.5 29.5t109.5 29.5q57 5 120 -8.5t84 -50.5q-176 -117 -388 -117zM175 828q68 178 218.5 298.5t341.5 146.5q-10 -19 -45.5 -41.5t-42.5 -29.5q-23 -21 -47.5 -36t-39.5 -27t-29 -34q-13 -20 -47.5 -54t-60.5 -62.5t-26 -44.5q0 -27 29 -53t48 -19 q18 7 62.5 5.5t72.5 -11.5q6 -2 26 -6l42.5 -8.5t50.5 -14.5t52.5 -22.5t46 -33.5t33 -47t10 -64t-18.5 -83q-10 -26 -38.5 -46.5t-57.5 -33t-58.5 -43t-41.5 -75.5q-23 -90 -24 -129q-1 -11 5 -67t4 -94.5t-20 -38.5q-28 0 -88.5 72.5t-60.5 94.5q0 6 -14.5 76.5 t-14.5 115.5q0 25 -20.5 45.5t-44.5 33t-44.5 38.5t-20.5 60q0 39 17.5 76t31 62.5t6.5 43.5q-5 12 -20 21t-41 14t-44 7.5t-50.5 5t-36.5 2.5zM1056 1244q212 -71 346 -254.5t134 -413.5q0 -240 -146 -429v1q-23 18 -33 51.5t6 79.5q18 39 25 117t2 122q-3 24 -9.5 49.5 t-18 56t-32 50t-45.5 19.5q-57 1 -95 25t-69 86q-18 36 -19 67.5t11 54.5t29.5 43.5t35 37.5t29.5 33.5t11 35t-19 38.5q-9 10 -26 0.5t-40 -16.5t-44.5 -9t-39 22.5t-22.5 77.5q-1 19 29 54v1z" />
<glyph unicode="&#xf00d;" horiz-adv-x="1024" d="M86 1152h-54q-14 0 -23 9t-9 23v64q0 14 9 23t23 9h960q14 0 23 -9t9 -23v-64q0 -14 -9 -23t-23 -9h-54q-8 -201 -77.5 -332.5t-192.5 -173.5v-148q121 -42 190.5 -171.5t79.5 -326.5h54q14 0 23 -9t9 -23v-64q0 -14 -9 -23t-23 -9h-960q-14 0 -23 9t-9 23v64q0 14 9 23 t23 9h54q10 197 79.5 326.5t190.5 171.5v148q-123 42 -192.5 173.5t-77.5 332.5zM870 1152h-716q3 -75 15.5 -141.5t39 -131.5t75 -111t114.5 -63l26 -6v-254l-26 -7q-65 -17 -113 -61.5t-74.5 -108.5t-39.5 -129t-17 -139h87l271 271l271 -271h87q-4 74 -17 139t-39.5 129 t-74.5 108.5t-113 61.5l-26 7v254l26 6q66 17 114.5 63t75 111t39 131.5t15.5 141.5zM363 842h298l-149 -148z" />
<glyph unicode="&#xf00e;" horiz-adv-x="1920" d="M166 1280q-69 0 -117.5 -48.5t-48.5 -117.5v-1076q0 -68 48.5 -117t117.5 -49h1588q69 0 117.5 49t48.5 117v1076q0 69 -48.5 117.5t-117.5 48.5h-1588zM1760 32h-1600v1088h1600v-1088zM1312 960q-103 0 -160.5 -70.5t-57.5 -181.5q-2 -123 108 -216q14 -11 8 -28 l-16 -46q-8 -15 -24 -24.5t-64 -25.5q-54 -11 -82 -22v-154h576v154q-28 11 -82 22q-48 16 -64 25.5t-24 24.5l-16 46q-6 17 8 28q110 93 108 216q0 111 -57.5 181.5t-160.5 70.5zM320 880v-96h576v96h-576zM320 624v-96h576v96h-576zM320 368v-96h576v96h-576z" />
<glyph unicode="&#xf010;" horiz-adv-x="1920" d="M1600 1152q132 0 226 -94t94 -226v-512q0 -132 -94 -226t-226 -94h-1280q-132 0 -226 94t-94 226v512q0 132 94 226t226 94h1280zM320 128h1280q80 0 136 56t56 136v512q0 80 -56 136t-136 56h-1280q-80 0 -136 -56t-56 -136v-512q0 -80 56 -136t136 -56zM256 896v-128 h128v128h-128zM512 896v-128h128v128h-128zM768 896v-128h128v128h-128zM1024 896v-128h128v128h-128zM1536 896v-128h128v128h-128zM1280 896v-128h128v128h-128zM256 640v-128h128v128h-128zM512 640v-128h128v128h-128zM768 640v-128h128v128h-128zM1024 640v-128h128 v128h-128zM1536 640v-128h128v128h-128zM1280 640v-128h128v128h-128zM256 384v-128h128v128h-128zM1536 384v-128h128v128h-128zM512 384h896v-128h-896v128z" />
<glyph unicode="&#xf011;" horiz-adv-x="1664" d="M832 1408q169 0 323 -66t265.5 -177.5t177.5 -265.5t66 -323t-66 -323.5t-177.5 -265.5t-265.5 -177t-323 -66t-323 66t-265.5 177t-177.5 265.5t-66 323.5t66 323t177.5 265.5t265.5 177.5t323 66zM384 768q0 -53 37.5 -90.5t90.5 -37.5t90.5 37.5t37.5 90.5t-37.5 90.5 t-90.5 37.5t-90.5 -37.5t-37.5 -90.5zM832 64q137 0 243.5 89.5t140.5 229.5h-768q34 -141 140 -230t244 -89zM1152 640q53 0 90.5 37.5t37.5 90.5t-37.5 90.5t-90.5 37.5t-90.5 -37.5t-37.5 -90.5t37.5 -90.5t90.5 -37.5z" />
<glyph unicode="&#xf012;" horiz-adv-x="1472" d="M1464 318q-94 -203 -283 -323.5t-413 -122.5q-157 1 -299 62t-244.5 163.5t-163.5 244.5t-61 298q0 205 97.5 378t267 276.5t373.5 111.5q43 2 62 -38q17 -42 -16 -72q-176 -164 -176 -400q0 -111 43 -211.5t115 -173t172.5 -116t212.5 -43.5q119 0 228 51q41 18 72 -13 t13 -72z" />
<glyph unicode="&#xf013;" horiz-adv-x="1152" d="M0 1408v-1408h384v512h320q198 0 322.5 119t124.5 329t-124.5 329t-322.5 119h-704zM384 768v384h192q89 0 140.5 -48.5t51.5 -143.5t-53.5 -143.5t-138.5 -48.5h-192z" />
<glyph unicode="&#xf014;" horiz-adv-x="1664" d="M832 1408q-159 0 -271.5 -112.5t-112.5 -271.5t112.5 -271.5t271.5 -112.5t271.5 112.5t112.5 271.5t-112.5 271.5t-271.5 112.5zM832 512q112 0 227 -22t224 -69.5t193.5 -114t136 -162.5t51.5 -208q0 -75 -57 -133.5t-135 -58.5h-1280q-78 0 -135 58.5t-57 133.5 q0 112 51.5 208t136 162.5t193.5 114t224 69.5t227 22z" />
<glyph unicode="&#xf015;" horiz-adv-x="1024" d="M640 -256v256h384v256h-384v144q168 43 276 181t108 315q0 212 -150 362t-362 150t-362 -150t-150 -362q0 -177 108 -315t276 -181v-144h-384v-256h384v-256h256zM512 1152q106 0 181 -75t75 -181t-75 -181t-181 -75t-181 75t-75 181t75 181t181 75z" />
<glyph unicode="&#xf016;" horiz-adv-x="1536" d="M512 896q-212 0 -362 -150t-150 -362t150 -362t362 -150t362 150t150 362q0 140 -71 260l327 327v-395h256v832h-832v-257h394l-326 -326q-120 71 -260 71zM512 640q106 0 181 -75t75 -181t-75 -181t-181 -75t-181 75t-75 181t75 181t181 75z" />
<glyph unicode="&#xf017;" horiz-adv-x="1664" d="M1664 669v344q0 40 -50 89.5t-110.5 81.5t-95.5 32q0 24 -20 44t-44 20h-1024q-24 0 -44 -20t-20 -44q-35 0 -95.5 -32t-110.5 -81.5t-50 -89.5v-337q0 -39 34.5 -72t93.5 -42v-562q-26 0 -45 -19t-19 -45t19 -45t45 -19h1408q26 0 45 19t19 45t-19 45t-45 19v559 q60 10 94 40.5t34 69.5zM896 448v-448h-640v562q79 24 96 39q57 -50 160 -50t160 50q57 -50 160 -50t160 50q57 -50 160 -50t160 50q17 -15 96 -39v-562h-128v448h-384zM960 384h256v-384h-256v384zM384 667l-1 377q0 58 33.5 82t94.5 26h129q0 -54 1 -223.5t0 -261.5 q-37 -50 -129 -50q-90 0 -128 50zM1023 667v153v179.5v152.5h128q24 -1 31 -1.5t26 -3t25 -6t18 -11.5t16 -19t8 -28t4 -39l1 -377q-6 -27 -41.5 -41t-86.5 -14t-87 14t-42 41zM384 448v-320h384v320h-384zM448 384h256v-192h-256v192z" />
<glyph unicode="&#xf018;" d="M2 622q1 -95 41.5 -193.5t110.5 -172.5q-16 79 -13.5 157t18.5 127q13 41 38.5 78t50 64.5t48.5 58t39.5 73t17.5 95.5q2 55 -9.5 114t-39 120t-68 112.5t-101.5 92.5t-135 60q47 -49 77.5 -104.5t43.5 -113t17 -97.5t4 -93q1 -54 -21 -109.5t-48.5 -94t-48.5 -86 t-22 -88.5zM559 -46l-147 292l1234 619l146 -291zM151 -251l-147 291l290 146l146 -291z" />
<glyph unicode="&#xf019;" horiz-adv-x="1664" d="M1664 576q0 -203 -66.5 -386.5t-206.5 -298.5q-24 -19 -47 -19q-26 0 -45 19t-19 45q0 32 31 55q80 58 133 163.5t72.5 209.5t19.5 212t-19.5 212t-72.5 209.5t-133 163.5q-31 23 -31 55q0 26 19 45t45 19q23 0 47 -19q140 -115 206.5 -298.5t66.5 -386.5zM1408 576 q0 161 -51.5 309.5t-158.5 247.5q-21 19 -46 19q-26 0 -45 -19t-19 -45q0 -31 29 -54q82 -67 122.5 -198.5t40.5 -259.5t-40.5 -259.5t-122.5 -198.5q-29 -23 -29 -54q0 -26 19 -45t45 -19q25 0 46 19q107 99 158.5 247.5t51.5 309.5zM960 128q-26 0 -45 19t-19 45 q0 24 17 43q111 130 111 341q0 210 -111 341q-17 19 -17 43q0 26 19 45t45 19q27 0 48 -21q72 -75 108 -192t36 -235t-36 -235t-108 -192q-21 -21 -48 -21zM64 1280q-26 0 -45 19t-19 45t19 45t45 19q121 0 226 -41t182 -126.5t103 -203.5q18 -66 49 -100q23 -26 96 -62 t97 -65q7 -9 11 -21.5t4.5 -19t0 -25t-0.5 -21.5q0 -26 -13 -48.5t-37.5 -40t-47 -29.5t-55.5 -26l-96 -37q5 -20 22.5 -57.5t28 -71t5.5 -59.5q-5 -24 -43 -31q-49 -16 -154 -17.5t-154 6.5q33 -39 55 -57q34 -27 66 -39t103 -24q69 -11 64 -70q-9 -95 -82.5 -140.5 t-173.5 -45.5q-19 0 -32.5 -8.5t-19.5 -22.5t-9.5 -31t-3 -34t0.5 -32q0 -26 -19 -45t-45 -19t-45 19t-19 45v64q0 82 56 137t136 55q34 1 74.5 11t41.5 31q-128 12 -218 84t-90 194q0 33 26 50.5t59 10.5q92 -21 215 -19q44 0 66 7q-1 2 -23.5 61t-22.5 82q0 44 48 62 q5 2 35 11t58 18t58 21.5t47.5 26.5t14.5 27q-4 10 -45 29t-88.5 46t-65.5 53q-49 70 -61 143q-15 72 -51.5 123t-92 79.5t-111.5 42.5t-130 22z" />
<glyph unicode="&#xf01a;" horiz-adv-x="1536" d="M768 1152q212 0 362 -150t150 -362q0 -104 -39.5 -197.5t-110.5 -164.5l181 -181q106 106 165.5 246.5t59.5 296.5q0 209 -103 385.5t-279.5 279.5t-385.5 103t-385.5 -103t-279.5 -279.5t-103 -385.5q0 -156 59.5 -296.5t165.5 -246.5l181 181q-71 71 -110.5 164.5 t-39.5 197.5q0 212 150 362t362 150z" />
<glyph unicode="&#xf01b;" horiz-adv-x="1664" d="M64 738l-64 30v128l832 384l832 -384v-128l-64 -30v-534q0 -38 -26.5 -57t-69.5 -19t-69.5 19t-26.5 57v446l-480 -222v-480q0 -38 -26.5 -57t-69.5 -19t-69.5 19t-26.5 57v480l-480 222v-446q0 -38 -26.5 -57t-69.5 -19t-69.5 19t-26.5 57v534z" />
<glyph unicode="&#xf01c;" horiz-adv-x="1664" d="M64 738l-64 30v128l832 384l832 -384v-128l-64 -30v-534q0 -38 -26.5 -57t-69.5 -19t-69.5 19t-26.5 57v446l-480 -222v-480q0 -38 -26.5 -57t-69.5 -19t-69.5 19t-26.5 57v480l-480 222v-446q0 -38 -26.5 -57t-69.5 -19t-69.5 19t-26.5 57v534zM832 512l768 352 l-768 352l-768 -352z" />
<glyph unicode="&#xf01d;" horiz-adv-x="1664" d="M289 1152h1086q202 -185 267 -245q22 -11 22 -34v-141q0 -22 -11.5 -50t-27.5 -28h-32v-678q0 -27 -8 -65.5t-23 -38.5h-133q-16 0 -35 42t-19 62v678h-1086v-678q0 -20 -19 -62t-35 -42h-133q-15 0 -23 38.5t-8 65.5v678h-32q-16 0 -27.5 28t-11.5 50v141q0 23 22 34z M1323 286v312h-170v-312q0 -24 9 -51.5t25 -27.5h71q17 0 41 30.5t24 48.5zM341 286v312h170v-312q0 -24 -9 -51.5t-25 -27.5h-71q-17 0 -41 30.5t-24 48.5z" />
<glyph unicode="&#xf01e;" horiz-adv-x="1664" d="M128 1408q-52 0 -90 -38t-38 -90v-512q0 -52 38 -90t90 -38h512q52 0 90 38t38 90v512q0 52 -38 90t-90 38h-512zM128 1280h512v-512h-512v512zM1024 1408q-52 0 -90 -38t-38 -90v-512q0 -52 38 -90t90 -38h512q52 0 90 38t38 90v512q0 52 -38 90t-90 38h-512zM128 512 q-52 0 -90 -38t-38 -90v-512q0 -52 38 -90t90 -38h512q52 0 90 38t38 90v512q0 52 -38 90t-90 38h-512zM128 384h512v-512h-512v512zM1024 512q-52 0 -90 -38t-38 -90v-512q0 -52 38 -90t90 -38h512q52 0 90 38t38 90v512q0 52 -38 90t-90 38h-512zM1024 384h512v-512h-512 v512z" />
<glyph unicode="&#xf021;" horiz-adv-x="1408" d="M704 1216q-144 0 -225 -106t-81 -271q-1 -205 132 -325q17 -16 12 -41l-23 -48q-11 -24 -32.5 -37.5t-90.5 -38.5q-3 -1 -126.5 -41t-131.5 -44q-84 -35 -110 -73q-28 -63 -28 -319h1408q0 256 -28 319q-26 38 -110 73q-8 4 -131.5 44t-126.5 41q-69 25 -90.5 38.5 t-32.5 37.5l-23 48q-5 25 12 41q133 120 132 325q0 165 -81 271t-225 106z" />
<glyph unicode="&#xf022;" horiz-adv-x="1408" d="M704 576q-5 -3 -55.5 -25t-58.5 -28q38 -57 73 -98q-9 -20 -26 -93t-36.5 -168t-20.5 -99q-1 3 -21 8t-42.5 18.5t-29.5 37.5q-16 54 -27 162t-17 192.5t-13 93.5q-7 -3 -31.5 -16t-50.5 -23q-30 -11 -82 -30t-82 -30.5t-66.5 -27.5t-59 -32.5t-34.5 -33.5 q-24 -64 -24 -512h1408q0 112 -5.5 292t-18.5 220q-12 17 -34.5 33.5t-59 32.5t-66.5 27.5t-82 30.5t-82 30q-26 10 -50.5 23t-31.5 16q-7 -9 -11.5 -93.5t-14 -192.5t-25.5 -162q-7 -24 -29.5 -37.5t-42.5 -18.5t-21 -8q-62 303 -89 360q35 41 73 98q-8 6 -58.5 28 t-55.5 25zM704 1280q133 0 226.5 -93.5t93.5 -226.5t-93.5 -226.5t-226.5 -93.5t-226.5 93.5t-93.5 226.5t93.5 226.5t226.5 93.5zM976 958q-39 -8 -111.5 7.5t-122.5 36.5q-34 15 -65 34.5t-71 49t-62 43.5q16 -119 -112 -170q1 -113 80.5 -192t191.5 -79t191.5 79 t80.5 191z" />
<glyph unicode="&#xf023;" horiz-adv-x="1408" d="M192 -128h1152q0 24 32 250t32 298q0 38 -92 68.5t-212 54t-144 33.5l-53 -178q-67 -43 -139 -43t-139 43l-53 178q-24 -10 -144 -33.5t-212 -54t-92 -68.5q0 -72 32 -298t32 -250zM768 320q58 -1 124 29l-124 -413l-124 413q66 -30 124 -29zM942 692q104 -79 194 -63 q-48 28 -57 85q16 -21 46.5 -27t59.5 4q-49 43 -65 89t-24 126q-4 44 -5.5 124.5t-9.5 125.5t-32 79q-30 43 -124 76t-157 33q-87 0 -183 -43t-121 -117q-7 -21 -11.5 -88t-6.5 -133.5t-2 -69.5q-18 -177 -74 -220q14 -9 44 -0.5t52 25.5q-1 -30 -45 -80q27 -5 89.5 19 t96.5 46q75 -43 161 -43q95 0 174 52zM567 777q-9 60 12 204t62 164q7 3 26 -12.5t21 -26.5q6 -32 -12 -62q19 -17 73.5 -21t99 -0.5t67.5 8.5q12 -13 22.5 -28t17.5 -33.5t12 -32t9.5 -37t6 -33t4.5 -34t4 -28.5q-38 -54 -97 -85.5t-127 -31.5q-120 0 -201 89z" />
<glyph unicode="&#xf024;" horiz-adv-x="1408" d="M704 1280q133 0 226.5 -93.5t93.5 -226.5t-93.5 -226.5t-226.5 -93.5t-226.5 93.5t-93.5 226.5t93.5 226.5t226.5 93.5zM976 958q-39 -8 -111.5 7.5t-122.5 36.5q-34 15 -65 34.5t-71 49t-62 43.5q16 -119 -112 -170q1 -113 80.5 -192t191.5 -79t191.5 79t80.5 191z M834 65h-254q-10 0 -26 4t-38 20t-29 40q-16 54 -27 162t-17 192.5t-13 93.5q-7 -3 -31.5 -16t-50.5 -23q-30 -11 -82 -30t-82 -30.5t-66.5 -27.5t-59 -32.5t-34.5 -33.5q-24 -64 -24 -512h1408q0 112 -5.5 292t-18.5 220q-12 17 -34.5 33.5t-59 32.5t-66.5 27.5t-82 30.5 t-82 30q-26 10 -50.5 23t-31.5 16q-7 -9 -11.5 -93.5t-14 -192.5t-25.5 -162q-7 -24 -29 -40t-38 -20t-26 -4zM704 544l192 64v-192l-192 64l-192 -64v192zM704 320q-12 0 -22 9.5t-10 22.5t10 22.5t22 9.5t22 -9.5t10 -22.5t-10 -22.5t-22 -9.5zM704 192q-12 0 -22 9.5 t-10 22.5t10 22.5t22 9.5t22 -9.5t10 -22.5t-10 -22.5t-22 -9.5z" />
<glyph unicode="&#xf025;" horiz-adv-x="1408" d="M192 -128h1152q0 24 32 250t32 298q0 13 -7 24.5t-23 20.5t-32 16t-45 15t-51 13t-61.5 14t-64.5 15q-26 10 -50.5 23t-31.5 16q-7 -9 -13 -93.5t-17 -192.5t-27 -162q-7 -24 -29 -40t-38 -20t-26 -4h-248q-10 0 -26 4t-38 20t-29 40q-16 54 -27 162t-17 192.5t-13 93.5 q-7 -3 -31.5 -16t-50.5 -23q-25 -6 -64.5 -15t-61.5 -14t-51 -13t-45 -15t-32 -16t-23 -20.5t-7 -24.5q0 -72 32 -298t32 -250zM768 544l192 64v-192l-192 64l-192 -64v192zM768 320q-12 0 -22 9.5t-10 22.5t10 22.5t22 9.5t22 -9.5t10 -22.5t-10 -22.5t-22 -9.5zM768 192 q-12 0 -22 9.5t-10 22.5t10 22.5t22 9.5t22 -9.5t10 -22.5t-10 -22.5t-22 -9.5zM942 692q104 -79 194 -63q-48 28 -57 85q16 -21 46.5 -27t59.5 4q-49 43 -65 89t-24 126q-4 44 -5.5 124.5t-9.5 125.5t-32 79q-30 43 -124 76t-157 33q-87 0 -183 -43t-121 -117 q-7 -21 -11.5 -88t-6.5 -133.5t-2 -69.5q-18 -177 -74 -220q14 -9 44 -0.5t52 25.5q-1 -30 -45 -80q27 -5 89.5 19t96.5 46q75 -43 161 -43q95 0 174 52zM567 777q-9 60 12 204t62 164q7 3 26 -12.5t21 -26.5q6 -32 -12 -62q19 -17 73.5 -21t99 -0.5t67.5 8.5 q12 -13 22.5 -28t17.5 -33.5t12 -32t9.5 -37t6 -33t4.5 -34t4 -28.5q-38 -54 -97 -85.5t-127 -31.5q-120 0 -201 89z" />
<glyph unicode="&#xf026;" horiz-adv-x="1408" d="M704 576q-5 -3 -55.5 -25t-58.5 -28q38 -57 73 -98q-9 -20 -26 -93t-36.5 -168t-20.5 -99q-1 3 -21 8t-42.5 18.5t-29.5 37.5q-16 54 -27 162t-17 192.5t-13 93.5q-7 -3 -31.5 -16t-50.5 -23q-30 -11 -82 -30t-82 -30.5t-66.5 -27.5t-59 -32.5t-34.5 -33.5 q-24 -64 -24 -512h1408q0 112 -5.5 292t-18.5 220q-12 17 -34.5 33.5t-59 32.5t-66.5 27.5t-82 30.5t-82 30q-26 10 -50.5 23t-31.5 16q-7 -9 -11.5 -93.5t-14 -192.5t-25.5 -162q-7 -24 -29.5 -37.5t-42.5 -18.5t-21 -8q-62 303 -89 360q35 41 73 98q-8 6 -58.5 28 t-55.5 25zM704 1280q140 0 235 -103q27 13 61 3q13 -2 29 -1t30.5 2.5t28.5 -14t23 -50.5q4 -16 6.5 -29.5t1.5 -25.5t-1 -20t-4.5 -18t-5.5 -14.5t-9 -14t-9.5 -11.5t-11 -12t-10.5 -11q-5 -25 -21.5 -44t-28.5 -19q-22 -111 -110 -184.5t-204 -73.5t-204 73.5t-110 184.5 q-12 0 -28.5 19t-21.5 44q-1 1 -10.5 11t-11 12t-9.5 11.5t-9 14t-5.5 14.5t-4.5 18t-1 20t1.5 25.5t6.5 29.5q9 35 23 50.5t28.5 14t30.5 -2.5t29 1q34 10 61 -3q95 103 235 103zM657 1056q6 0 10.5 -4.5t4.5 -10.5v-27q20 2 32 2t32 -2v27q0 6 4.5 10.5t10.5 4.5h145 q-19 34 -17 47q1 10 3.5 14t5.5 5t10 4.5t13 9.5q-81 96 -207 96t-207 -96q6 -6 13 -9.5t10 -4.5t5.5 -5t3.5 -14q2 -13 -17 -47h145zM480 1015q-10 -5 -45 -18q-3 -18 -3 -37q0 -112 80 -192t192 -80t192 80t80 192q0 19 -3 37q-35 13 -45 18v-104q0 -6 -4.5 -10.5 t-10.5 -4.5h-162q-6 0 -10.5 4.5t-4.5 10.5v63q-15 3 -32 3t-32 -3v-63q0 -6 -4.5 -10.5t-10.5 -4.5h-162q-6 0 -10.5 4.5t-4.5 10.5v104zM876 1024h-88q-8 0 -14 -6t-6 -14v-56q0 -8 6 -14t14 -6h88q8 0 14 6t6 14v56q0 8 -6 14t-14 6zM532 1024q-8 0 -14 -6t-6 -14v-56 q0 -8 6 -14t14 -6h88q8 0 14 6t6 14v56q0 8 -6 14t-14 6h-88z" />
<glyph unicode="&#xf027;" horiz-adv-x="1664" d="M56 1075h1553q55 0 55 56v166q0 47 -32 79t-79 32h-1442q-47 0 -79 -32t-32 -79v-166q0 -56 56 -56zM277 77h-221q-56 0 -56 -56v-166q0 -47 32 -79t79 -32h166q56 0 56 56v221q0 56 -56 56zM1387 77q-56 0 -56 -56v-221q0 -56 56 -56h166q47 0 79 32t32 79v166 q0 56 -55 56h-222zM943 77q-56 0 -56 -56v-221q0 -56 56 -56h222q55 0 55 56v221q0 56 -55 56h-222zM499 77q-55 0 -55 -56v-221q0 -56 55 -56h222q56 0 56 56v221q0 56 -56 56h-222zM1387 521q-56 0 -56 -56v-222q0 -55 56 -55h222q55 0 55 55v222q0 56 -55 56h-222z M943 521q-56 0 -56 -56v-222q0 -55 56 -55h222q55 0 55 55v222q0 56 -55 56h-222zM56 521q-56 0 -56 -56v-222q0 -55 56 -55h221q56 0 56 55v222q0 56 -56 56h-221zM499 521q-55 0 -55 -56v-222q0 -55 55 -55h222q56 0 56 55v222q0 56 -56 56h-222zM1387 964q-56 0 -56 -55 v-222q0 -56 56 -56h222q55 0 55 56v222q0 55 -55 55h-222zM943 964q-56 0 -56 -55v-222q0 -56 56 -56h222q55 0 55 56v222q0 55 -55 55h-222zM56 964q-56 0 -56 -55v-222q0 -56 56 -56h221q56 0 56 56v222q0 55 -56 55h-221zM499 964q-55 0 -55 -55v-222q0 -56 55 -56h222 q56 0 56 56v222q0 55 -56 55h-222z" />
<glyph unicode="&#xf028;" d="M1152 352v-64q0 -14 -9 -23t-23 -9h-448q-14 0 -23 9t-9 23v64q0 32 20 56l300 360h-288q-14 0 -23 9t-9 23v64q0 14 9 23t23 9h448q14 0 23 -9t9 -23v-64q0 -32 -20 -56l-300 -360h288q14 0 23 -9t9 -23zM1792 -32v-64q0 -14 -9 -23t-23 -9h-448q-14 0 -23 9t-9 23v64 q0 32 20 56l300 360h-288q-14 0 -23 9t-9 23v64q0 14 9 23t23 9h448q14 0 23 -9t9 -23v-64q0 -32 -20 -56l-300 -360h288q14 0 23 -9t9 -23zM512 736v-64q0 -14 -9 -23t-23 -9h-448q-14 0 -23 9t-9 23v64q0 32 20 56l300 360h-288q-14 0 -23 9t-9 23v64q0 14 9 23t23 9h448 q14 0 23 -9t9 -23v-64q0 -32 -20 -56l-300 -360h288q14 0 23 -9t9 -23z" />
<glyph unicode="&#xf029;" d="M937 1120q-130 0 -240.5 -64.5t-175 -175t-64.5 -240.5t64.5 -240.5t175 -175t240.5 -64.5t240.5 64.5t175 175t64.5 240.5t-64.5 240.5t-175 175t-240.5 64.5zM1790 363q0 -6 -7 -12t-13 -8l-293 -97v-306q0 -16 -13 -26q-14 -9 -29 -4l-292 94l-180 -248 q-9 -12 -26 -12t-26 12l-180 248l-292 -94q-15 -5 -29 4q-12 8 -14 26v306l-292 97q-16 5 -20 20q-5 16 4 29l180 248l-180 248q-9 13 -4 29q4 15 20 20l292 97v306q2 18 14 26q14 9 29 4l292 -94l180 248q9 12 26 12t26 -12l180 -248l292 94q15 5 29 -4q13 -10 13 -26v-306 l293 -97q6 -2 13 -8t7 -12q4 -15 -4 -29l-181 -248l181 -248q8 -14 4 -29zM1513 640q0 157 -77 289.5t-209.5 209.5t-289.5 77t-289.5 -77t-209.5 -209.5t-77 -289.5q0 -118 46 -225t123 -184t183.5 -122.5t223.5 -45.5q158 0 290.5 77.5t209 210t76.5 289.5z" />
<glyph unicode="&#xf02a;" horiz-adv-x="1536" d="M288 1408q-118 0 -203 -85t-85 -203v-960q0 -118 85 -203t203 -85h960q118 0 203 85t85 203v960q0 118 -85 203t-203 85h-960zM951 480v-46q0 -10 -6.5 -16.5t-16.5 -6.5h-320q-10 0 -16.5 6.5t-6.5 16.5v46q0 23 14 40q36 43 107.5 128.5t107.5 128.5h-206 q-10 0 -16.5 6.5t-6.5 16.5v46q0 10 6.5 16.5t16.5 6.5h320q10 0 16.5 -6.5t6.5 -16.5v-46q0 -23 -14 -40q-36 -43 -107.5 -128.5t-107.5 -128.5h206q10 0 16.5 -6.5t6.5 -16.5zM1408 206v-46q0 -10 -6.5 -16.5t-16.5 -6.5h-320q-10 0 -16.5 6.5t-6.5 16.5v46q0 22 14 40 q43 50 124 147.5t91 109.5h-206q-10 0 -16.5 6.5t-6.5 16.5v45q0 10 6.5 16.5t16.5 6.5h320q10 0 16.5 -6.5t6.5 -16.5v-45q0 -23 -14 -40q-10 -12 -91 -109.5t-124 -147.5h206q10 0 16.5 -6.5t6.5 -16.5zM494 754v-45q0 -10 -6.5 -16.5t-16.5 -6.5h-320q-10 0 -16.5 6.5 t-6.5 16.5v45q0 23 14 40q10 12 91 109.5t124 147.5h-206q-10 0 -16.5 6.5t-6.5 16.5v46q0 10 6.5 16.5t16.5 6.5h320q10 0 16.5 -6.5t6.5 -16.5v-46q0 -22 -14 -40q-43 -50 -124 -147.5t-91 -109.5h206q10 0 16.5 -6.5t6.5 -16.5z" />
<glyph unicode="&#xf02b;" horiz-adv-x="1152" d="M640 1408q-66 0 -113 -47t-47 -113t47 -113t113 -47t113 47t47 113t-47 113t-113 47zM275 -208l169 277q28 46 42 92l58 192l175 -183l153 -367q11 -27 34.5 -43t53.5 -16q40 0 68 28t28 68q0 17 -7 36l-140 345q-13 33 -20.5 44.5t-33.5 39.5l-197 212l60 282l56 -109 q16 -34 44 -49q6 -3 207 -105q48 -24 63 -24q28 0 46 18t18 46q0 41 -38 61l-229 122l-90 206q-25 55 -66 60l-229 26q-32 3 -86 -19l-242 -96q-20 -8 -39 -27t-25 -39q-79 -204 -104 -272q-4 -9 -4 -22q0 -26 19 -45t45 -19q20 0 40.5 9.5t26.5 24.5l102 268l210 79 l-147 -687l-188 -320q-12 -23 -12 -46q0 -40 28 -68t68 -28q54 0 83 48z" />
<glyph unicode="&#xf02c;" horiz-adv-x="1664" d="M1408 1280q98 0 177 -77t79 -179v-512q0 -109 -72.5 -182.5t-183.5 -73.5h-512l-512 -512v512h-128q-113 0 -184.5 72t-71.5 184v512q0 109 73.5 182.5t182.5 73.5h1152z" />
<glyph unicode="&#xf02d;" d="M1565 128h-93q0 157 -77 289.5t-209.5 209.5t-289.5 77t-289.5 -77t-209.5 -209.5t-77 -289.5h-93l-180 248q-9 13 -4 29q4 15 20 20l292 97v306q2 18 14 26q14 9 29 4l292 -94l180 248q9 12 26 12t26 -12l180 -248l292 94q15 5 29 -4q13 -10 13 -26v-306l293 -97 q6 -2 13 -8t7 -12q4 -15 -4 -29l-181 -248h1zM55 32q-21 0 -38 -16.5t-17 -38.5v-50q0 -22 17 -38.5t38 -16.5h1682q21 0 38 16.5t17 38.5v50q0 22 -17 38.5t-38 16.5h-1682zM896 608q-130 0 -240.5 -64.5t-175 -175t-64.5 -240.5h960q0 130 -64.5 240.5t-175 175 t-240.5 64.5z" />
<glyph unicode="&#xf02e;" d="M1565 128h-93q0 157 -77 289.5t-209.5 209.5t-289.5 77t-289.5 -77t-209.5 -209.5t-77 -289.5h-93l-180 248q-9 13 -4 29q4 15 20 20l292 97v306q2 18 14 26q14 9 29 4l292 -94l180 248q9 12 26 12t26 -12l180 -248l292 94q15 5 29 -4q13 -10 13 -26v-306l293 -97 q6 -2 13 -8t7 -12q4 -15 -4 -29l-181 -248h1zM55 32q-21 0 -38 -16.5t-17 -38.5v-50q0 -22 17 -38.5t38 -16.5h1682q21 0 38 16.5t17 38.5v50q0 22 -17 38.5t-38 16.5h-1682z" />
<glyph unicode="&#xf02f;" horiz-adv-x="1280" d="M0 -32v1344q0 28 13 48q13 21 34 35q24 13 49 13h640q28 0 58 -10q31 -9 59 -24q26 -14 47 -34q35 -35 98 -98.5t115 -115.5t99 -98q20 -21 34 -47q15 -28 24 -59q10 -30 10 -58v-896q0 -25 -13 -49q-14 -21 -35 -34q-20 -13 -48 -13h-1088q-27 0 -49 13q-21 13 -34 34 q-13 22 -13 49zM768 992q0 14 -9 23t-23 9h-192q-14 0 -23 -9t-9 -23v-416h-224q-9 0 -17 -5q-8 -7 -12 -14q-3 -10 -2 -18q1 -9 8 -17l351 -384q3 -3 11 -7l13 -3q7 0 13 3t10 7l353 384q7 8 8 17q0 12 -3 18q-3 9 -11 14q-10 5 -18 5h-224v416z" />
<glyph unicode="&#xf030;" horiz-adv-x="1280" d="M0 -32v1344q0 28 13 48q13 21 34 35q24 13 49 13h640q28 0 58 -10q31 -9 59 -24q26 -14 47 -34q35 -35 98 -98.5t115 -115.5t99 -98q20 -21 34 -47q15 -28 24 -59q10 -30 10 -58v-896q0 -25 -13 -49q-14 -21 -35 -34q-20 -13 -48 -13h-1088q-27 0 -49 13q-21 13 -34 34 q-13 22 -13 49zM1152 0v850q0 35 -19 70q-8 14 -11 17l-313 313q-9 10 -37 20q-34 10 -53 10h-591v-1280h1024zM768 992v-416h224q8 0 18 -5q8 -5 11 -14q3 -6 3 -18q-1 -9 -8 -17l-353 -384q-4 -4 -10 -7t-13 -3q-9 1 -13 3q-8 4 -11 7l-351 384q-7 8 -8 17q-1 8 2 18 q4 7 12 14q8 5 17 5h224v416q0 14 9 23t23 9h192q14 0 23 -9t9 -23z" />
<glyph unicode="&#xf031;" horiz-adv-x="1856" d="M672 640h736v224q0 9 5 17q3 7 14 12q10 3 18 2q10 -2 17 -7l384 -353q6 -6 7 -10q3 -6 3 -13t-3 -13q-1 -5 -7 -11l-384 -351q-6 -6 -17 -8q-8 -1 -18 2q-9 4 -14 11q-5 8 -5 18v224h-736q-15 2 -23 10q-9 8 -9 22v192q0 14 9 23t23 9zM0 864v-896q0 -25 13 -49 q14 -21 35 -34q20 -13 48 -13h1088q27 0 49 13q21 13 34 34q13 22 13 49v320h-128v-288h-1024v768h416q27 0 49 13q21 13 34 34q13 22 13 49v416h512v-544h128v576q0 28 -13 48q-13 21 -34 35q-24 13 -49 13h-640q-26 0 -58 -9q-27 -8 -59 -25q-29 -16 -47 -34l-312 -312 q-22 -23 -34 -47q-15 -28 -24 -59q-10 -30 -10 -58zM512 896h-376q4 11 11 24q6 12 11 17l313 313q4 4 17 12q21 9 24 10v-376z" />
<glyph unicode="&#xf032;" horiz-adv-x="1664" d="M1472 128h-1280q-24 0 -44 -38.5t-20 -89.5t20 -89.5t44 -38.5h1280q24 0 44 38.5t20 89.5t-20 89.5t-44 38.5zM128 1216q-53 0 -90.5 -37.5t-37.5 -90.5t37.5 -90.5t90.5 -37.5l80 -703h1248l80 703q53 0 90.5 37.5t37.5 90.5t-37.5 90.5t-90.5 37.5t-90.5 -37.5 t-37.5 -90.5q0 -56 41 -94q-153 -183 -207 -236.5t-90 -53.5q-34 0 -83 66.5t-170 272.5q28 17 44.5 46t16.5 63q0 53 -37.5 90.5t-90.5 37.5t-90.5 -37.5t-37.5 -90.5q0 -34 16.5 -63t44.5 -46q-121 -206 -170 -272.5t-83 -66.5q-36 0 -90 53.5t-207 236.5q41 38 41 94 q0 53 -37.5 90.5t-90.5 37.5z" />
<glyph unicode="&#xf033;" horiz-adv-x="1472" d="M864 1280q40 -1 68 -28q27 -28 28 -68v-1344q-1 -40 -28 -68q-28 -27 -68 -28h-768q-40 1 -68 28q-27 28 -28 68v1344q1 40 28 68q28 27 68 28h768zM432 1184q-20 0 -34 -14t-14 -34t14 -34t34 -14h96q20 0 34 14t14 34t-14 34t-34 14h-96zM528 -160q20 0 34 14t14 34 t-14 34t-34 14h-96q-20 0 -34 -14t-14 -34t14 -34t34 -14h96zM864 32v960h-768v-960h768zM1322 874q150 -158 150 -362t-150 -362q-20 -18 -45 -18q-26 0 -45 19q-20 20 -20 44q0 25 20 45q112 118 112 272t-112 272q-20 20 -20 45q0 24 20 44q19 19 45 19q25 0 45 -18z M1142 694q74 -80 74 -182t-74 -182q-20 -18 -46 -18t-45 19t-19 45t18 46q38 38 38 90t-38 90q-18 19 -18 46q0 26 19 45t45 19t46 -18z" />
<glyph unicode="&#xf034;" d="M1664 1280q49 0 88.5 -39.5t39.5 -88.5v-512q0 -52 -38 -90t-90 -38h-128v-384l-388 384h-380q-50 0 -89 39t-39 89v512q0 50 39 89t89 39h896zM512 640q1 -97 80 -176q76 -76 176 -80h384v-128q0 -49 -37.5 -88.5t-86.5 -39.5h-384l-388 -384v384h-128q-50 0 -89 39 t-39 89v512q0 50 39 89t89 39h384v-256z" />
<glyph unicode="&#xf035;" horiz-adv-x="1664" d="M1536 1280q0 -53 -20 -99q-21 -47 -55 -82q-38 -37 -82 -55q-46 -20 -99 -20q-52 0 -100 20q-43 19 -81 55q-37 38 -55 82q-20 46 -20 99t20 99q18 44 55 82q38 36 81 55q48 20 100 20q53 0 99 -20q44 -18 82 -55q34 -35 55 -82q20 -46 20 -99zM1664 671q0 -40 -16 -72 q-16 -30 -43 -49q-30 -20 -63 -29q-34 -9 -72 -9h-134q-52 61 -119 93q-65 32 -146 35q39 57 60 122q21 64 21 134q0 6 -0.5 17t-0.5 16q-2 22 -4 33q28 -10 65 -17q35 -6 68 -6q52 2 95 13q49 15 78 29q30 14 56 30q20 11 31 13q34 -2 53 -21q21 -18 35 -53q14 -29 22 -72 q8 -55 10 -79q3 -40 3 -74q1 -22 1 -54zM1088 896q0 -76 -30 -149q-30 -70 -83 -123q-55 -54 -122 -82q-69 -30 -149 -30t-150 30q-65 28 -122 82q-53 54 -82 123q-30 69 -30 149t30 149q31 72 82 122q53 53 122 83q70 30 150 30t149 -30q70 -30 122 -83q52 -49 83 -122 q30 -73 30 -149zM1408 3q-2 -83 -34 -139q-32 -57 -93 -89q-62 -31 -140 -31h-874q-79 0 -141 31q-60 32 -92 89q-34 56 -34 139q0 49 5 121q7 70 20 128q15 70 38 122q26 60 63 104q40 47 92 71q52 25 128 27q12 -2 31 -15q28 -18 52 -34q25 -16 72 -41q41 -21 92 -34 q45 -13 111 -15q66 2 111 15q51 13 92 34q47 25 72 41q10 7 52 34q19 13 31 15q76 -2 127 -27q52 -24 93 -71q38 -48 63 -104q25 -59 38 -122q13 -58 20 -128q5 -72 5 -121z" />
<glyph unicode="&#xf036;" d="M1504 768q0 23 -5 40t-17 27.5t-22.5 17t-33 9.5t-36.5 4.5t-43 2.5q-47 2 -72 4t-72 13t-75.5 29.5t-66 56t-61 89.5t-43.5 132.5t-29 182.5q0 14 9 23t23 9t23 -9t9 -23q7 -86 23 -154t35.5 -114t47.5 -79.5t54.5 -52t62 -29.5t62.5 -14t64 -4q10 0 35.5 -0.5t35 -1 t31.5 -2.5t31 -5t25.5 -9t24 -14t18 -20t15 -27t8 -36t3.5 -46v-96q0 -14 -9 -23t-23 -9t-23 9t-9 23v96zM1504 1088q-2 160 -160 160h-96q-14 0 -23 9t-9 23t9 23t23 9h96q101 0 158.5 -49.5t57.5 -146.5q53 0 85 -9.5t61 -40.5q56 -60 54 -170v-224q0 -14 -9 -23t-23 -9 t-23 9t-9 23v224q0 72 -31 116t-97 44h-64v32zM0 576h1408v-320h-1408v320zM1503 576q-12 0 -21.5 -9t-9.5 -22v-258q0 -13 9.5 -22t21.5 -9h66q12 0 21.5 9t9.5 22v258q0 13 -9.5 22t-21.5 9h-66zM1695 576q-12 0 -21.5 -9t-9.5 -22v-258q0 -13 9.5 -22t21.5 -9h66 q12 0 21.5 9t9.5 22v258q0 13 -9.5 22t-21.5 9h-66z" />
<glyph unicode="&#xf037;" d="M1504 768q0 23 -5 40t-17 27.5t-22.5 17t-33 9.5t-36.5 4.5t-43 2.5q-47 2 -72 4t-72 13t-75.5 29.5t-66 56t-61 89.5t-43.5 132.5t-29 182.5q0 14 9 23t23 9t23 -9t9 -23q7 -86 23 -154t35.5 -114t47.5 -79.5t54.5 -52t62 -29.5t62.5 -14t64 -4q10 0 35.5 -0.5t35 -1 t31.5 -2.5t31 -5t25.5 -9t24 -14t18 -20t15 -27t8 -36t3.5 -46v-96q0 -14 -9 -23t-23 -9t-23 9t-9 23v96zM1504 1088q-2 160 -160 160h-96q-14 0 -23 9t-9 23t9 23t23 9h96q101 0 158.5 -49.5t57.5 -146.5q53 0 85 -9.5t61 -40.5q56 -60 54 -170v-224q0 -14 -9 -23t-23 -9 t-23 9t-9 23v224q0 72 -31 116t-97 44h-64v32zM1142 256l221 -383q8 -13 4 -28.5t-18 -23.5l-100 -58q-13 -8 -29 -3.5t-23 17.5l-762 1319q-8 14 -4 29.5t18 23.5l100 57q13 8 29 4t24 -18l355 -616h451v-320h-266zM0 576h578l185 -320h-763v320zM1503 576q-12 0 -21.5 -9 t-9.5 -22v-258q0 -13 9.5 -22t21.5 -9h66q12 0 21.5 9t9.5 22v258q0 13 -9.5 22t-21.5 9h-66zM1695 576q-12 0 -21.5 -9t-9.5 -22v-258q0 -13 9.5 -22t21.5 -9h66q12 0 21.5 9t9.5 22v258q0 13 -9.5 22t-21.5 9h-66z" />
<glyph unicode="&#xf038;" horiz-adv-x="1152" d="M642 1536q-78 0 -132.5 -55t-54.5 -133t54.5 -132.5t132.5 -54.5q79 0 133.5 54.5t54.5 132.5t-54.5 133t-133.5 55zM550 1108q-24 52 -88 56q-24 2 -94 2q-159 -5 -286 -205q-61 -97 -74.5 -201t30.5 -204l62 -269l-75 -406q-9 -52 21.5 -94t80.5 -43q119 0 141 89 l89 389q8 38 8 53t-9 56l-42 248l110 292q9 -13 32.5 -50t39.5 -60t40 -52.5t48.5 -49.5t49.5 -31q23 -10 328 -74q41 -8 68.5 24t27.5 66q0 43 -57 74l-288 82zM791 341q0 71 50.5 121t122.5 50q70 0 120.5 -50t50.5 -121l-2 -554q0 -18 -12.5 -30.5t-30.5 -12.5 q-17 0 -30 12.5t-13 30.5v554q0 36 -24 61t-59 25q-36 0 -60.5 -25t-24.5 -61q0 -18 -13 -30t-30 -12q-18 0 -31.5 12t-13.5 30z" />
<glyph unicode="&#xf039;" horiz-adv-x="1536" d="M275 874q-8 0 -13.5 -6t-5.5 -15v-44q0 -8 5.5 -14t13.5 -6h602q8 0 13.5 6t5.5 14v44q0 9 -5.5 15t-13.5 6h-602zM768 1536q-67 2 -115.5 -45.5t-48.5 -114.5v-125q0 -22 -5.5 -36t-17.5 -22t-23 -11t-31 -6q-49 -6 -82.5 -41.5t-33.5 -110.5h714q0 75 -33.5 110.5 t-82.5 41.5q-20 3 -31 6t-23 11t-17.5 22t-5.5 36v125q0 67 -48.5 114.5t-115.5 45.5zM768 1408q24 -2 41 -20t17 -45q0 -25 -17 -43t-41 -20q-24 2 -41 20t-17 43q0 27 17 45t41 20zM1442 1408q38 0 66 -28t28 -66v-1476q0 -38 -28 -66t-66 -28h-1348q-38 0 -66 28t-28 66 v1476q0 38 28 66t66 28h418v-65q1 -27 -17 -45t-46 -18h-236q-35 0 -60 -25t-25 -60v-1238q0 -35 25 -60t60 -25h1110q35 0 60 25t25 60v1238q0 35 -25 60t-60 25h-234q-29 0 -47.5 18t-17.5 45v65h418zM287 620q-12 0 -21.5 -6.5t-9.5 -14.5v-44q0 -9 9.5 -15t21.5 -6h962 q12 0 21.5 6t9.5 15v44q0 8 -9.5 14.5t-21.5 6.5h-962zM280 362q-9 0 -16.5 -6t-7.5 -15v-44q0 -8 7.5 -14t16.5 -6h720q9 0 16.5 6t7.5 14v44q0 9 -7.5 15t-16.5 6h-720zM283 108q-10 0 -18.5 -6.5t-8.5 -14.5v-44q0 -9 8.5 -15t18.5 -6h842q10 0 18.5 6t8.5 15v44 q0 8 -8.5 14.5t-18.5 6.5h-842z" />
<glyph unicode="&#xf03a;" horiz-adv-x="2048" d="M512 -84h-24h-30.5t-30.5 0.5t-34.5 1.5t-32 2.5t-33 4.5t-28 7t-26 9t-17.5 12v-145q0 -29 18.5 -46.5t45.5 -17.5h128q27 0 45.5 17.5t18.5 46.5v108zM1536 -84h24h30.5t30.5 0.5t34.5 1.5t32 2.5t33 4.5t28 7t26 9t17.5 12v-145q0 -29 -18.5 -46.5t-45.5 -17.5h-128 q-27 0 -45.5 17.5t-18.5 46.5v108zM193 769q-98 0 -146 -43t-47 -118q1 -86 36.5 -131t91.5 -45q0 -48 1 -79t4 -72.5t9.5 -68.5t17.5 -59.5t27.5 -52.5t40.5 -41t55 -32.5t72.5 -19t92.5 -7.5h1152q51 0 92.5 7.5t72.5 19t55 32.5t40.5 41t27.5 52.5t17.5 59.5t9.5 68.5 t4 72.5t1 79q56 0 91.5 45t36.5 131q1 75 -46 118t-145 43q-49 0 -92 -35t-74.5 -93.5t-53.5 -123t-36 -134.5q-266 133 -576.5 133t-576.5 -133q-14 71 -36 135t-53 122.5t-74 93.5t-92 35zM512 1152q-64 0 -111 -7.5t-80.5 -25.5t-55 -40t-36 -58t-21.5 -72t-13 -90 q38 -5 70 -16t55 -23.5t44.5 -36.5t34 -40.5t28.5 -51t23.5 -54t23 -62.5t23.5 -64q244 92 527.5 92t527.5 -92q8 20 19.5 52t18.5 50.5t18 45.5t20 43.5t23 38.5t27.5 35.5t32 29t39.5 25t47.5 17t57.5 11.5q-7 64 -17 106t-31 81t-54.5 60t-87 33.5t-129.5 12.5h-1024z " />
<glyph unicode="&#xf03b;" d="M774 4q-1 2 -11 0t-27 4t-33.5 14t-30 30t-16.5 53q-3 23 -26 22q-24 -1 -33 -25q-2 -8 -2 -17q6 -51 43.5 -88.5t75 -51.5t66.5 -14q25 0 55 27t47 54l17 27q6 -1 20 -17t29.5 -34t43 -32.5t58.5 -13.5q45 2 100.5 45t64.5 108q3 22 -10 31.5t-28.5 3t-17.5 -23.5 q-9 -61 -46 -82t-82 -16q-20 1 -39.5 24t-33.5 57.5t-23.5 67.5t-14.5 61q7 4 37 46t30 50q-7 6 -48 5.5t-89 -3.5l-48 -3q74 -90 83 -95q-4 -56 -39 -133.5t-72 -80.5zM1614 673q-8 6 -42.5 39.5t-68.5 56t-71 26.5q-41 5 -90 -9t-64 -39q48 -25 69.5 -66.5t18 -83.5 t-18 -85t-32.5 -72.5t-32 -44.5q-22 4 -45 22t-46.5 56t-29 94t8.5 137q-108 -65 -152 -317q49 -13 110 -22t131.5 -7.5t108.5 21.5q83 44 149 129t96 165zM178 673q30 -80 96 -165t149 -129q38 -20 108.5 -21.5t131.5 7.5t110 22q-44 252 -152 317q8 -89 2.5 -146 t-28.5 -93t-43.5 -51t-42.5 -19q-14 15 -32 44.5t-32.5 72.5t-18 85t18 83.5t69.5 66.5q-15 25 -64 39t-90 9q-37 -4 -71 -26.5t-68.5 -56t-42.5 -39.5zM896 1051q107 0 165 -7.5t127 -34.5q4 -2 20.5 19.5t45 58t63.5 77.5t83.5 86t96.5 76q72 47 123 66.5t108 15.5 q30 -49 -0.5 -276.5t-63.5 -299.5q69 -125 98.5 -260.5t29.5 -237.5q0 -87 -101.5 -194.5t-243 -193t-296 -144t-255.5 -58.5t-255.5 58.5t-296 144t-243 193t-101.5 194.5q0 102 29.5 237.5t98.5 260.5q-33 72 -63.5 299.5t-0.5 276.5q58 4 108.5 -15.5t121.5 -66.5 q48 -31 97 -76t84 -86t63.5 -77.5t45 -58t20.5 -19.5q69 27 127 34.5t165 7.5z" />
<glyph unicode="&#xf03c;" d="M464 688q-49 0 -80.5 -31.5t-31.5 -80.5t31.5 -80.5t80.5 -31.5t80.5 31.5t31.5 80.5t-31.5 80.5t-80.5 31.5zM1330 690q-50 0 -82 -32t-32 -82t32 -82t82 -32t82 32t32 82t-32 82t-82 32zM566 1042q29 12 344 12t344 -12q3 -1 9.5 8t18 25.5t26.5 38.5t37 48.5t46.5 53 t57.5 54.5t68 51q69 46 119.5 66t107.5 20q30 -59 15.5 -303.5t-45.5 -310.5q32 -58 55 -156.5t23 -188.5q0 -323 -235 -513.5t-661 -190.5q-167 0 -300.5 21.5t-247 72t-189 130t-117.5 200.5t-42 280q0 136 13 207.5t48 136.5q-19 40 -31.5 175.5t-9 270.5t23.5 169 q26 0 44 -3t36.5 -11.5t28.5 -15t36.5 -25.5t44.5 -31q75 -49 156 -121t126 -116t50 -42zM1299 155q0 29 -10.5 47t-21.5 24.5t-32 13.5q-24 -48 -70 -79.5t-84 -32.5q-44 -1 -99 42.5t-86 85.5q-20 -39 -66.5 -82t-86.5 -44q-48 -1 -81 6t-54 26t-31 33.5t-25 43.5 q-26 2 -46 -15.5t-19 -41.5q-2 -55 75 -118.5t142 -63.5q51 0 88 12t51 25t29.5 33.5t21.5 25.5q2 -1 25 -25.5t39 -36.5t52 -24t78 -10q50 0 130.5 59.5t80.5 95.5z" />
<glyph unicode="&#xf03d;" d="M1299 155q0 29 -10.5 47t-21.5 24.5t-32 13.5q-24 -48 -70 -79.5t-84 -32.5q-44 -1 -99 42.5t-86 85.5q-20 -39 -66.5 -82t-86.5 -44q-48 -1 -81 6t-54 26t-31 33.5t-25 43.5q-26 2 -46 -15.5t-19 -41.5q-2 -55 75 -118.5t142 -63.5q51 0 88 12t51 25t29.5 33.5 t21.5 25.5q2 -1 25 -25.5t39 -36.5t52 -24t78 -10q50 0 130.5 59.5t80.5 95.5zM566 1042q29 12 344 12t344 -12q3 -1 9.5 8t18 25.5t26.5 38.5t37 48.5t46.5 53t57.5 54.5t68 51q69 46 119.5 66t107.5 20q30 -59 15.5 -303.5t-45.5 -310.5q32 -58 55 -156.5t23 -188.5 q0 -323 -235 -513.5t-661 -190.5q-167 0 -300.5 21.5t-247 72t-189 130t-117.5 200.5t-42 280q0 136 13 207.5t48 136.5q-19 40 -31.5 175.5t-9 270.5t23.5 169q26 0 44 -3t36.5 -11.5t28.5 -15t36.5 -25.5t44.5 -31q75 -49 156 -121t126 -116t50 -42zM1472 503 q23 71 28.5 129t-7.5 62q-7 2 -25 -11q-9 -7 -28.5 -36.5t-39 -57t-52 -50t-68.5 -21.5q-10 0 -21 3t-22 9t-20.5 11.5t-21 14.5t-19 14.5t-18 15.5t-14.5 14l-13 13l-9 9q-21 24 -29 21q-9 -2 -12 -29t-2 -49q-2 -44 61.5 -109t139.5 -66q81 0 129.5 35t62.5 78zM310 504 q13 -40 67 -77t135 -37q76 1 139.5 66t61.5 109q1 22 -2 49t-12 29q-8 3 -29 -21l-9 -9l-13 -13t-14.5 -14t-18 -15.5t-19 -14.5t-21 -14.5t-20.5 -11.5t-22 -9t-21 -3q-36 -1 -68.5 21.5t-52 50t-39 57t-28.5 36.5q-18 13 -25 11q-8 -5 -11.5 -30t2 -68.5t20.5 -91.5z" />
<glyph unicode="&#xf03e;" d="M320 896h896q96 0 142 -86t40 -229q-2 -48 -25.5 -87.5t-57 -61.5t-67 -33.5t-61.5 -11.5q-70 0 -127.5 13t-93.5 31.5t-66.5 36.5t-63.5 31t-68 13q-42 0 -85 -19.5t-78 -43t-102.5 -43t-153.5 -19.5q-28 0 -61.5 11.5t-67.5 33.5t-57.5 61.5t-25.5 87.5 q-5 144 41 229.5t142 85.5zM768 -128q156 0 298 61t245 163.5t163.5 245t60.5 298.5q0 118 -33 225l205 -163l85 194l-313 34q-1 2 -2 5t-2 5.5t-2 4.5l302 125l-127 173l-192 -263q-95 193 -280 310.5t-408 117.5q-209 0 -385.5 -103t-279.5 -279.5t-103 -385.5t103 -385.5 t279.5 -279.5t385.5 -103zM308 846l-52 -142l125 3q-28 -33 -28 -84q0 -44 30.5 -77.5t64.5 -33.5q35 0 62.5 33t27.5 78q0 25 -7 43l131 -28l25 61zM1228 846l-379 -147l25 -61l131 28q-7 -18 -7 -43q0 -45 27.5 -78t62.5 -33q34 0 64.5 33.5t30.5 77.5q0 51 -28 84l125 -3 z" />
<glyph unicode="&#xf03f;" d="M891 847q-6 87 -66 144q-30 27 -50 37.5t-60 19.5q1 5 4.5 26t6.5 35l-91 12l-10 -50q-79 14 -136 -3v114q151 6 306 23l-14 94q-126 -21 -286 -29q2 30 6 49t6 37q-5 0 -36 0.5t-53 0.5q-2 -18 -5.5 -40t-5.5 -51l-154 -3l14 -94l120 6l5 -137q-100 -50 -150.5 -114 t-50.5 -169q0 -64 30 -97t75 -33.5t94 17t89 49.5l18 -36l72 46l-21 43q34 34 54 56.5t50.5 71.5t47.5 102q60 -17 82 -43t19 -86q-48 -10 -80 -48t-32 -88v-25q-37 -10 -81 -13l46 -73q5 1 35 6v-68h-510q-31 0 -53 22.5t-22 53.5v745q0 31 22 53t53 22h745q31 0 53.5 -22 t22.5 -53v-510h-109zM1103 847v551q0 57 -41 97.5t-97 40.5h-827q-57 0 -97.5 -40.5t-40.5 -97.5v-827q0 -56 40.5 -97t97.5 -41h551v-551q0 -57 41 -97.5t97 -40.5h827q57 0 97.5 40.5t40.5 97.5v827q0 56 -40.5 97t-97.5 41h-551zM401 952q10 -120 32 -181 q-17 -16 -40.5 -31t-49.5 -25t-44 1.5t-18 47.5q0 60 33 111t87 77zM491 985q54 26 119 7q-7 -25 -19.5 -47.5t-22.5 -35t-28 -34.5l-27 -33q-5 13 -9 26t-6 21t-3.5 24t-2 20.5t-1 26t-0.5 25.5zM995 -84h-132l310 758h135l310 -758h-132l-89 218h-312zM1241 515l-116 -281 h231z" />
<glyph unicode="&#xf040;" d="M1792 640q0 -174 -120 -321.5t-326 -233t-450 -85.5q-70 0 -145 8q-198 -175 -460 -242q-49 -14 -114 -22q-17 -2 -30.5 9t-17.5 29v1q-3 4 -0.5 12t2 10t4.5 9.5l6 9t7 8.5t8 9q7 8 31 34.5t34.5 38t31 39.5t32.5 51t27 59t26 76q-157 89 -247.5 220t-90.5 281 q0 130 71 248.5t191 204.5t286 136.5t348 50.5q244 0 450 -85.5t326 -233t120 -321.5z" />
<glyph unicode="&#xf041;" d="M1792 640q0 -150 -91.5 -282t-250.5 -221l-657 1139q68 4 103 4q244 0 450 -85.5t326 -233t120 -321.5zM539 1387q256 -444 457.5 -793t362.5 -629q9 -14 4.5 -31t-18.5 -25l-108 -62q-15 -8 -31.5 -4t-24.5 19l-89 153q-95 -15 -196 -15q-70 0 -145 8 q-198 -175 -460 -242q-49 -14 -114 -22q-17 -2 -30.5 9t-17.5 29v1q-3 4 -0.5 12t2 10t4.5 9.5l6 9t7 8.5t8 9q7 8 31 34.5t34.5 38t31 39.5t32.5 51t27 59t26 76q-157 89 -247.5 220t-90.5 281q0 168 113 311.5t306 230.5l-59 102q-8 14 -4 31t19 25l107 62q15 8 31.5 3.5 t25.5 -18.5z" />
<glyph unicode="&#xf042;" d="M1792 640q0 -174 -120 -321.5t-326 -233t-450 -85.5q-70 0 -145 8q-198 -175 -460 -242q-49 -14 -114 -22q-17 -2 -30.5 9t-17.5 29v1q-3 4 -0.5 12t2 10t4.5 9.5l6 9t7 8.5t8 9q7 8 31 34.5t34.5 38t31 39.5t32.5 51t27 59t26 76q-157 89 -247.5 220t-90.5 281 q0 130 71 248.5t191 204.5t286 136.5t348 50.5q244 0 450 -85.5t326 -233t120 -321.5zM128 542q22 -189 218 -189q91 0 151.5 42t60.5 129q0 36 -10.5 64t-26.5 46.5t-43 33t-52 23t-62 17.5q-80 18 -102 41q-12 13 -12 29q0 29 28 42t61 13q44 0 66.5 -18.5t29.5 -61.5 l107 4q-3 86 -58 127.5t-144 41.5q-80 0 -136 -39t-56 -116q0 -71 45 -109t123 -58q4 -1 25 -5.5t31 -7.5t28 -9.5t27 -13.5t16.5 -19t7.5 -26q0 -39 -31.5 -57.5t-72.5 -18.5q-96 0 -115 105zM647 362h98l1 436l103 -436h103l104 436l1 -436h99v553h-161l-93 -376l-95 376 h-160v-553zM1234 542q22 -189 219 -189q90 0 150.5 42t60.5 129q0 45 -14 77t-44.5 52.5t-59.5 31.5t-76 23q-80 18 -102 41q-12 13 -12 29q0 29 28 42t61 13q44 0 67 -18.5t30 -61.5l107 4q-3 86 -58 127.5t-144 41.5q-80 0 -136.5 -39t-56.5 -116q0 -71 45.5 -109 t123.5 -58q5 -1 25 -5.5t30 -7.5t27.5 -9.5t27 -13.5t17 -19t7.5 -26q0 -39 -31 -57.5t-72 -18.5q-98 0 -115 105z" />
<glyph unicode="&#xf043;" horiz-adv-x="1664" d="M64 1408q-26 0 -45 -19t-19 -45v-1536q0 -26 19 -45t45 -19h1536q26 0 45 19t19 45v1536q0 26 -19 45t-45 19h-1536zM1472 512v-576h-576v576h576zM768 -64h-576v576h576v-576zM896 1216h576v-576h-576v576zM192 1216h576v-576h-576v576zM1152 832q33 -55 124 -91.5 t132 -36.5v448h-384q27 -116 51 -175t77 -145zM512 832q53 86 77 145t51 175h-384v-448q41 0 132 36.5t124 91.5zM1344 384q-26 -66 -44.5 -171t-19.5 -213h128v448q-24 0 -37 -13.5t-27 -50.5zM320 384q-14 37 -27 50.5t-37 13.5v-448h128q-1 108 -19.5 213t-44.5 171z" />
<glyph unicode="&#xf044;" d="M0 288l320 320q5 -105 48 -202t120 -174t174 -120t202 -48l-320 -320q-188 74 -328 216q-142 140 -216 328zM1792 288l-320 320q-5 -105 -48 -202t-120 -174t-174 -120t-202 -48l320 -320q188 74 328 216q142 140 216 328zM1248 1536l-268 -268l-52 -52q105 -5 202 -48 t174 -120t120 -174t48 -202l320 320q-74 188 -216 328q-140 142 -328 216zM544 1536l320 -320q-105 -5 -202 -48t-174 -120t-120 -174t-48 -202l-52 52l-268 268q74 188 216 328q140 142 328 216z" />
<glyph unicode="&#xf045;" horiz-adv-x="1664" d="M1664 1280v-640q0 -116 -0.5 -170.5t-1.5 -143.5t-4.5 -132t-9.5 -108.5t-15.5 -102.5t-22.5 -84t-31.5 -83t-42.5 -72h-1536q79 242 103.5 447.5t24.5 576.5v512l256 -2v-574q0 -86 53 -139t139 -53q139 0 180 93q12 28 12 99v448h-128v-448q0 -39 -12 -51.5t-52 -12.5 q-33 3 -49 17.5t-15 46.5v576h1152zM527 1377q30 50 82 50q60 0 90 -24.5t35 -82.5h128q0 56 -13 89q-20 49 -80.5 88t-151.5 39q-100 0 -165 -55q-68 -59 -68 -147v-54h128v24t1 27t4.5 21t9.5 25z" />
<glyph unicode="&#xf046;" horiz-adv-x="1664" d="M1664 1280v-640q0 -116 -0.5 -170.5t-1.5 -143.5t-4.5 -132t-9.5 -108.5t-15.5 -102.5t-22.5 -84t-31.5 -83t-42.5 -72h-1536q79 242 103.5 447.5t24.5 576.5v512h442q-24 -60 -24 -128q0 -145 102.5 -247.5t247.5 -102.5t247.5 102.5t102.5 247.5q0 68 -24 128h442z M896 1408q106 0 181 -75t75 -181t-75 -181t-181 -75t-181 75t-75 181t75 181t181 75zM896 1280q8 0 14 7t6 17t-6 17t-14 7q-73 0 -124.5 -51.5t-51.5 -124.5q0 -7 8 -13.5t16 -6.5q10 0 17 6t7 14q0 52 38 90t90 38z" />
<glyph unicode="&#xf047;" horiz-adv-x="1664" d="M1152 128h412q-13 -60 -94 -148.5t-173.5 -156t-144.5 -79.5v384zM1024 192v-448h-1024q79 242 103.5 447.5t24.5 576.5v512h1536v-512q0 -65 -3.5 -125t-6.5 -97t-12 -90t-12.5 -69t-16 -70.5t-13.5 -60.5h-512q-40 0 -52 -12t-12 -52z" />
<glyph unicode="&#xf048;" d="M128 1344q0 26 19 45t45 19h1408q26 0 45 -19t19 -45v-1024h98q12 0 21 -9t9 -21v-68q0 -12 -9 -21t-21 -9h-579l131 -487q7 -25 -6.5 -48.5t-39.5 -30.5t-48.5 6.5t-29.5 38.5l-140 521h-90v-384q0 -26 -19 -45t-45 -19t-45 19t-19 45v384h-90l-140 -521 q-7 -25 -29.5 -38.5t-48.5 -6.5t-39.5 30.5t-6.5 48.5l131 487h-579q-12 0 -21 9t-9 21v68q0 12 9 21t21 9h98v1024zM256 320h1280v960h-1280v-960zM384 384v109q0 14 9.5 24t23.5 10h318q14 0 23.5 -10t9.5 -24v-109h-384z" />
<glyph unicode="&#xf049;" horiz-adv-x="2560" d="M64 738l-64 30v128l832 384l832 -384v-128l-64 -30v-534q0 -38 -26.5 -57t-69.5 -19t-69.5 19t-26.5 57v446l-480 -222v-480q0 -38 -26.5 -57t-69.5 -19t-69.5 19t-26.5 57v480l-480 222v-446q0 -38 -26.5 -57t-69.5 -19t-69.5 19t-26.5 57v534zM2240 280v-240 q0 -16 -12 -28t-28 -12h-240q-16 0 -28 12t-12 28v240q0 16 12 28t28 12h240q16 0 28 -12t12 -28zM2556 880q0 -54 -15.5 -101t-35 -76.5t-55 -59.5t-57.5 -43.5t-61 -35.5q-41 -23 -68.5 -65t-27.5 -67q0 -17 -12 -32.5t-28 -15.5h-240q-15 0 -25.5 18.5t-10.5 37.5v45 q0 83 65 156.5t143 108.5q59 27 84 56t25 76q0 42 -46.5 74t-107.5 32q-65 0 -108 -29q-35 -25 -107 -115q-13 -16 -31 -16q-12 0 -25 8l-164 125q-13 10 -15.5 25t5.5 28q160 266 464 266q80 0 161 -31t146 -83t106 -127.5t41 -158.5z" />
<glyph unicode="&#xf04a;" horiz-adv-x="1664" d="M1664 1280v-637q0 -110 -0.5 -153t-1.5 -130t-3 -122.5t-6.5 -102t-11 -97.5t-16 -80.5t-22 -80t-29.5 -66t-38 -67.5h-1536q79 242 103.5 447.5t24.5 576.5v512h256v54q0 88 68 147q65 55 165 55q91 0 151.5 -39t80.5 -88q13 -33 13 -89h-128q-5 58 -35 82.5t-90 24.5 q-52 0 -82 -50q-6 -11 -9.5 -25t-4.5 -21t-1 -27v-24h1152zM512 1152v-448q-1 -32 15 -46.5t49 -17.5q40 0 52 12.5t12 51.5v320h128v-320q0 -71 -12 -99q-41 -93 -180 -93q-86 0 -139 53t-53 139v448h-128v-384q0 -326 -17.5 -515t-71.5 -381h1275q28 57 46 122.5 t27.5 118.5t14 155t5.5 163.5t1 211.5v509h-1024z" />
<glyph unicode="&#xf04b;" d="M896 -256q277 0 516 113.5t380 334.5q-80 50 -240 45t-298 -65q-90 -39 -159 -98t-96 -113v449q201 28 332 153t131 326v566q0 34 -23.5 57.5t-57.5 23.5q-21 -10 -67.5 -56.5t-103 -109t-71.5 -77.5q-13 13 -71 80.5t-105.5 115t-66.5 47.5q-20 0 -67.5 -47.5t-105 -115 t-70.5 -80.5q-15 15 -71.5 77.5t-103 109t-68.5 56.5q-33 0 -57 -23.5t-24 -57.5v-566q0 -102 36.5 -187.5t100.5 -144.5t147 -96.5t179 -50.5v-449q-26 53 -95 112.5t-159 98.5q-138 60 -298 65t-240 -45q142 -221 380.5 -334.5t515.5 -113.5z" />
<glyph unicode="&#xf04c;" horiz-adv-x="1536" d="M1404 1373q-57 -15 -97 -73.5t-40 -127.5q0 -59 4.5 -183t4.5 -181q0 -72 -13 -124t-33.5 -84t-55.5 -53t-69.5 -30.5t-85.5 -17.5q43 75 43 162t-35 179.5t-82.5 168.5t-99.5 129q99 119 226 178.5t333 56.5zM832 448q155 37 156 200q1 69 -26 148t-76.5 158 t-125.5 151.5t-167 128t-208.5 87.5t-242.5 30q56 -15 96.5 -84.5t40.5 -140.5q0 -60 -4.5 -172t-4.5 -168q0 -67 25 -123.5t67.5 -95.5t98.5 -66t117.5 -40t125.5 -13v-256q-31 38 -103.5 77t-155.5 66q-118 40 -250.5 36.5t-194.5 -51.5q143 -186 339 -240t365 48v-350 q0 -14 8 -24t22 -10h68q14 0 22 10t8 24v158q90 -41 188.5 -43.5t191 30.5t177.5 102t147 167q-48 29 -124.5 46t-170.5 12.5t-169 -36.5q-63 -27 -130 -86.5t-110 -114.5v435zM1164 1439q0 -23 -49.5 -50t-119.5 -53t-77 -30q3 24 -20.5 44t-53.5 29.5t-56.5 18t-27.5 12.5 q-5 12 51.5 15.5t113.5 6t54 12.5q-2 6 -12.5 10.5t-28 7.5t-37 5t-42 3t-39 1.5l-33 1t-19.5 0.5q-39 2 -125 -6t-82 -25q3 -14 51 -30t103.5 -29.5t101.5 -38.5t46 -57q0 -11 -2 -18.5t-10 -17t-14 -16t-24 -22t-30 -27.5q-45 47 -101 79t-147 48q-68 13 -112 44t-44 69 q0 26 22.5 45.5t62.5 31t80 19t90.5 10t77 3.5t56.5 1q396 0 396 -97z" />
<glyph unicode="&#xf04d;" d="M336 1536h1120q139 0 237.5 -98.5t98.5 -237.5v-1120q0 -139 -98.5 -237.5t-237.5 -98.5h-1120q-139 0 -237.5 98.5t-98.5 237.5v1120q0 139 98.5 237.5t237.5 98.5zM1200 1237h-609q-30 0 -52 -22t-22 -53v-149q0 -31 22 -52.5t52 -21.5h156v-598h-156q-30 0 -52 -21.5 t-22 -52.5v-149q0 -31 22 -53t52 -22h609q31 0 53 22t22 53v149q0 31 -22 52.5t-53 21.5h-155v598h155q31 0 53 21.5t22 52.5v149q0 31 -22 53t-53 22z" />
<glyph unicode="&#xf04e;" horiz-adv-x="2176" d="M768 256q59 25 145.5 44.5t174.5 19.5q166 0 320 -64q-12 81 11 155.5t77 172.5h-157q-34 0 -58.5 25.5t-24.5 60.5t24.5 60.5t58.5 25.5h209q7 102 1.5 138.5t-27.5 58.5q-32 31 -109 51t-133 20h-384q-56 0 -132 -20t-108 -51q-22 -22 -27.5 -58.5t1.5 -138.5h208 q34 0 59 -25.5t25 -60.5t-25 -60.5t-59 -25.5h-156q53 -96 75.5 -171.5t10.5 -156.5zM768 1216h640q61 0 128 -64q50 0 90 6.5t71.5 20.5t53.5 28t46 41t38.5 45.5t41 55.5t43.5 59q22 -60 24.5 -113t-11.5 -91.5t-40 -71t-57 -53.5t-67.5 -36.5t-68.5 -23t-61 -10.5 q7 -27 15.5 -88t9.5 -89q8 8 131.5 67t132.5 59q11 0 64 -41t113 -91t71 -58q-41 -28 -69 -59.5t-40 -53t-27.5 -40.5t-43.5 -29t-76 -10q-38 0 -74 12.5t-72.5 39t-56 43.5t-54.5 51q-7 -77 -28.5 -141t-42.5 -100.5t-38 -95t-18 -129.5q-1 -44 31.5 -135t32.5 -121 q0 -60 -37.5 -107.5t-93 -74.5t-128 -44.5t-134 -23.5t-119.5 -6t-119.5 6t-134 23.5t-128 44.5t-93 74.5t-37.5 107.5q0 30 32.5 121t31.5 135q-1 71 -18 129.5t-38 95t-42.5 100.5t-28.5 141q-35 -34 -54.5 -51t-56 -43.5t-72.5 -39t-74 -12.5q-48 0 -76 10t-43.5 29 t-27.5 40.5t-40 53t-69 59.5q10 7 71 57.5t114 91.5t64 41q9 0 132 -59t131 -67q1 28 10 89t16 88q-29 3 -61 10.5t-68.5 23t-68 36.5t-57.5 53.5t-39.5 71t-11.5 91.5t24 113q17 -22 43.5 -59t41 -55.5t38.5 -45.5t46 -41t53.5 -28t71.5 -20.5t90 -6.5q67 64 128 64z M1320 153q-38 0 -62.5 -21.5t-24.5 -57.5v-79q0 -36 24.5 -57.5t62.5 -21.5q37 0 62 21.5t25 57.5v79q0 36 -25 57.5t-62 21.5zM856 153q-37 0 -62 -21.5t-25 -57.5v-79q0 -36 25 -57.5t62 -21.5q38 0 62.5 21.5t24.5 57.5v79q0 36 -24.5 57.5t-62.5 21.5z" />
<glyph unicode="&#xf04f;" d="M768 0q50 -5 128 -5t128 5q-2 -42 0 -139q1 -15 0 -31t1 -31.5t6 -27.5t15.5 -19.5t30.5 -7.5h94q35 0 55.5 12t42.5 43l236 339q103 96 168.5 250t65.5 270q0 41 -4.5 79t-17.5 79.5t-18 58t-25 63t-20 47.5q13 41 47 138.5t61 176.5t30 98q-5 5 -24.5 25.5t-26 26 t-27 22t-34 22t-39.5 16.5t-51.5 15t-62.5 7.5t-80 3.5q-64 0 -108.5 -19t-63.5 -42.5t-43.5 -58.5t-44.5 -53q-140 46 -291 46t-291 -46q-20 18 -44.5 53t-43.5 58.5t-63.5 42.5t-108.5 19q-43 0 -80 -3.5t-62.5 -7.5t-51.5 -15t-39.5 -16.5t-34 -22t-27 -22t-26 -26 t-24.5 -25.5q3 -19 30 -98t61 -176.5t47 -138.5q0 -1 -20 -47.5t-25 -63t-18 -58t-17.5 -79.5t-4.5 -79q0 -116 65.5 -270t168.5 -250l236 -339q22 -31 42.5 -43t55.5 -12h94q19 0 30.5 7.5t15.5 19.5t6 27.5t1 31.5t0 31q2 97 0 139zM565 467q0 62 28.5 111.5t75 80.5 t106 47.5t121.5 16.5t121.5 -16.5t106 -47.5t75 -80.5t28.5 -111.5t-28.5 -111.5t-75 -80.5t-106 -47.5t-121.5 -16.5t-121.5 16.5t-106 47.5t-75 80.5t-28.5 111.5zM1034 571q-29 0 -49 -26.5t-20 -63.5t20 -63.5t49 -26.5t49 26.5t20 63.5t-20 63.5t-49 26.5zM1204 1027 q29 0 50 -15t21 -36v-118q0 -23 -23 -37t-48 -14q-29 0 -50 15t-21 36v118q0 24 22.5 37.5t48.5 13.5zM758 571q-29 0 -49 -26.5t-20 -63.5t20 -63.5t49 -26.5t49 26.5t20 63.5t-20 63.5t-49 26.5zM588 1027q26 0 48.5 -13.5t22.5 -37.5v-118q0 -21 -21 -36t-50 -15 q-25 0 -48 14t-23 37v118q0 21 21 36t50 15z" />
<glyph unicode="&#xf050;" d="M159 347q2 60 16.5 112.5t34.5 91.5t39.5 77t34 85.5t16.5 99.5q3 86 -55 112q-38 23 -127.5 56.5t-117.5 47.5q26 23 66.5 60t70.5 63.5t56 46.5q-62 41 -62 117q0 55 43 96.5t93 41.5q43 0 79 -34.5t57 -76.5q-7 47 -1 87.5t36.5 73t85.5 32.5q56 0 96 -40.5t40 -98.5 q0 -47 -29 -86q8 -1 15 -3t12 -3.5t11 -5.5t9.5 -5.5t9 -8t7.5 -8t8.5 -10.5t8 -11.5t9 -14t9.5 -14.5q30 -44 56.5 -132t45 -170.5t25.5 -98.5q57 -49 123.5 -82.5t122.5 -34.5q63 -1 135.5 36.5t136 94.5t123 127t102 133t67.5 114q15 -42 24 -75.5t14 -88t-3.5 -98.5 t-38.5 -93.5t-83 -86.5q2 -2 27 -3.5t52.5 -6t58.5 -30.5t46 -71q-53 0 -94 -32.5t-52 -66.5q35 8 95 -25.5t79 -89.5q-45 -4 -71 -31t-52 -96q-34 -92 -107.5 -151t-162.5 -78t-189 -13t-188.5 36t-159.5 77.5t-104 103.5q70 -162 203 -252.5t280 -91.5q108 -1 217 68 q-31 -71 -98.5 -126.5t-147 -85.5t-151.5 -45t-131 -17q-371 -11 -575 151t-196 451zM383 1249q-41 0 -69.5 -28.5t-28.5 -69.5t28.5 -69.5t69.5 -28.5t69.5 28.5t28.5 69.5t-28.5 69.5t-69.5 28.5z" />
<glyph unicode="&#xf051;" horiz-adv-x="2048" d="M832 0q-557 0 -832 576q69 95 142.5 169t146 122t141 80t141 48.5t133 22.5t128.5 6q117 0 280 -57.5t309 -150.5t208 -187q77 81 123 127.5t100.5 93.5t101 72.5t94.5 37.5q-7 -24 -28 -83.5t-32 -96t-21.5 -96.5t-10.5 -119q0 -103 25 -230t67 -207q-41 2 -88 17.5 t-102 46.5t-114 87t-111 130q-49 -74 -132 -146t-186.5 -131t-231 -95.5t-251.5 -36.5zM448 832q-81 0 -136.5 -55.5t-55.5 -136.5t55.5 -136.5t136.5 -55.5t136.5 55.5t55.5 136.5t-55.5 136.5t-136.5 55.5zM451 735q-41 0 -68.5 -27t-27.5 -67q0 -41 28 -71t68 -30 t69.5 30t29.5 71q0 40 -29 67t-70 27z" />
<glyph unicode="&#xf052;" horiz-adv-x="1664" d="M1381 228l-143 170l13 11q32 33 30.5 78.5t-27.5 86.5q-14 21 -21.5 36t-13 27.5t-7.5 35t-3.5 38.5t-3.5 60.5t-4 81.5q0 119 -61 243.5t-157 220.5t-222 157.5t-249 61.5q-109 0 -205 -46.5t-163 -125t-105.5 -184t-38.5 -220.5q0 -88 42.5 -186t106.5 -177.5 t134.5 -141.5t130.5 -91q42 -20 184.5 -64.5t192.5 -64.5q20 -8 51 -23t42 -18.5t32.5 -5t42 8t50.5 29.5l168 -200q-40 -48 -40 -110q0 -71 50.5 -121.5t122.5 -50.5q71 0 121.5 50.5t50.5 121.5q72 0 127 50.5t55 121.5q0 70 -55 121.5t-127 51.5q-57 0 -101 -33z M512 1327q4 12 13 22.5t26.5 24t20.5 16.5q30 26 84 -5q170 -91 276.5 -236.5t131.5 -331.5q5 -38 -15 -65q-18 -24 -62 -46q-16 -8 -33.5 8.5t-18.5 41.5q-4 118 -63.5 225t-149.5 182.5t-200 122.5q-21 9 -10 41zM1315 -166q-47 0 -69 24t-22 59q0 32 16.5 66.5t42.5 57.5 l-209 246q-18 21 1 35l46 35q19 13 36 -5l207 -242q8 6 26 20.5t29.5 22.5t29 15.5t35.5 7.5q33 0 61.5 -27.5t28.5 -64.5q0 -51 -50 -73t-100 -9q-15 4 -17 -2t3 -19q12 -53 -15 -100t-80 -47z" />
<glyph unicode="&#xf053;" d="M336 1536h560h560q139 0 237.5 -98.5t98.5 -237.5v-1120q0 -139 -98.5 -237.5t-237.5 -98.5h-1120q-139 0 -237.5 98.5t-98.5 237.5v1120q0 139 98.5 237.5t237.5 98.5zM667 348h458l85 -251q11 -36 24 -45t44 -9h157q53 0 35 69l-333 964q-17 64 -57.5 112.5t-97.5 48.5 h-172q-57 0 -97.5 -48.5t-57.5 -112.5l-333 -964q-18 -69 35 -69h157q31 0 44 9t24 45zM1058 573h-324l130 385q8 26 32 26t32 -26z" />
<glyph unicode="&#xf054;" d="M336 1536h1120q139 0 237.5 -98.5t98.5 -237.5v-1120q0 -139 -98.5 -237.5t-237.5 -98.5h-1120q-139 0 -237.5 98.5t-98.5 237.5v1120q0 139 98.5 237.5t237.5 98.5zM675 1029v-285h334q49 0 84.5 41.5t35.5 100.5t-35 101t-85 42h-334zM428 1162v-1044q0 -31 21.5 -53 t52.5 -22h507q147 0 251 103t104 248q0 144 -102 246q102 102 102 246q0 145 -104 248t-251 103h-507q-31 0 -52.5 -22t-21.5 -53zM1009 251h-334v285h334q49 0 84.5 -41.5t35.5 -100.5t-35 -101t-85 -42z" />
<glyph unicode="&#xf055;" d="M336 1536h1120q139 0 237.5 -98.5t98.5 -237.5v-1120q0 -139 -98.5 -237.5t-237.5 -98.5h-1120q-139 0 -237.5 98.5t-98.5 237.5v1120q0 139 98.5 237.5t237.5 98.5zM299 640q0 -162 80 -299.5t217.5 -217.5t299.5 -80q192 0 340.5 98.5t212.5 267.5q30 81 -23 81h-186 q-20 0 -32 -4t-16 -7.5t-15 -19.5t-18 -25q-47 -60 -116 -95t-149 -35q-140 0 -238.5 98.5t-98.5 237.5t98.5 237.5t238.5 98.5q80 0 149 -35t116 -95q6 -8 13 -18l10.5 -15t8.5 -10.5t11 -7.5t15.5 -3.5t22.5 -1.5h186q53 0 23 81q-64 169 -212.5 267.5t-340.5 98.5 q-162 0 -299.5 -80t-217.5 -217.5t-80 -299.5z" />
<glyph unicode="&#xf056;" d="M336 1536h1120q139 0 237.5 -98.5t98.5 -237.5v-1120q0 -139 -98.5 -237.5t-237.5 -98.5h-1120q-139 0 -237.5 98.5t-98.5 237.5v1120q0 139 98.5 237.5t237.5 98.5zM1045 1149q0 48 -17 68t-62 20h-219q-19 -48 -76.5 -110.5t-102.5 -78.5q-18 -6 -33.5 -30t-15.5 -45 v-98q0 -30 22 -52t53 -22q20 0 38.5 5t30.5 10.5t27 19t20.5 19t20 23.5t16.5 20v-557h-156q-30 0 -52 -21.5t-22 -52.5v-149q0 -31 22 -53t52 -22h609q31 0 53 22t22 53v149q0 31 -22 52.5t-53 21.5h-155v808z" />
<glyph unicode="&#xf057;" d="M1455 1536h-1119q-139 0 -237.5 -98.5t-98.5 -237.5v-1119q0 -139 98 -237.5t238 -98.5h1119q139 0 237.5 98.5t98.5 237.5v1119q0 139 -98.5 237.5t-237.5 98.5zM346 99v11q0 70 59.5 155.5t151.5 162.5t200.5 144t209.5 107q86 35 126.5 71t41.5 80q1 67 -77 119 t-157 52q-46 0 -104 -25t-107 -66.5t-68 -84.5q-3 -6 -6.5 -14.5t-4.5 -10.5t-3.5 -6t-3.5 -4t-5 -1t-7 0t-10.5 1h-14.5h-163q-30 0 -48 26t-10 51q55 168 212 269t354 101q87 0 173.5 -26t156.5 -73t113.5 -119.5t43.5 -156.5q0 -81 -24 -145t-65.5 -106.5t-92 -75.5 t-109 -60t-112 -52.5t-106.5 -61t-86 -76.5h595q19 0 33.5 -16.5t14.5 -39.5v-130q0 -23 -14.5 -39.5t-33.5 -16.5h-1005q-19 0 -33.5 16.5t-14.5 39.5z" />
<glyph unicode="&#xf058;" d="M1456 1536h-1120q-139 0 -237.5 -99t-98.5 -238v-1119q0 -139 98.5 -237.5t237.5 -98.5h1120q139 0 237.5 98.5t98.5 237.5v1119q0 139 -98.5 238t-237.5 99zM906 1022q0 1 -12.5 1.5t-32.5 -1t-43.5 -5t-47.5 -13t-44 -23t-32.5 -36t-12.5 -51.5q0 -12 -8.5 -18 t-15.5 -6h-223q-11 0 -17.5 16t-6.5 28q3 71 32.5 127t75 92t107 60t126 34t134.5 10q77 0 157.5 -16.5t159.5 -50.5t129.5 -97.5t50.5 -147.5q0 -182 -195 -285q195 -103 195 -285q0 -84 -50.5 -147.5t-129.5 -97.5t-159.5 -50.5t-157.5 -16.5q-70 0 -134.5 10t-126 34 t-107 60t-75 92t-32.5 127q0 12 6.5 27.5t17.5 15.5h223q8 0 16 -6t8 -18q0 -29 12.5 -51.5t32.5 -35.5t44 -22.5t47.5 -13t43.5 -5t32.5 -1.5t12.5 1q51 2 96 17t79 48.5t34 81.5q0 130 -184 130h-108q-34 0 -42.5 8.5t-9.5 40.5v114q1 32 10 40.5t42 8.5h108 q184 0 184 130q-1 70 -64 106.5t-145 39.5z" />
<glyph unicode="&#xf059;" d="M1482 -173v-64h260v913h-1004v-913h251v64h493zM1482 343h-493v130h493v-130zM989 28v132h493v-132h-493zM697 548l-21 207q-38 -15 -151 -47v285h159v205h-159v339h-251v-339h-221v-205h221v-351q-181 -43 -260 -53l49 -232l211 56v-373q0 -59 -63 -59h-154l29 -232h219 q94 0 157 52q63 53 63 148v536q114 37 172 63zM1794 981v228l-218 26q0 -188 -25 -213q-27 -25 -263 -25q-93 0 -171 5q-61 3 -87 7q-18 4 -27 17q-10 15 -10 34v75q578 100 774 185l-133 205q-168 -83 -641 -178v194h-253v-552q0 -94 54 -145q55 -52 199 -61 q139 -10 266 -10q369 0 453 52q82 52 82 156z" />
<glyph unicode="&#xf05a;" d="M530 457l-226 75q-32 -112 -115 -313q-87 -212 -178 -344l225 -131q87 140 174 351q90 218 120 362zM463 787q-116 116 -330 278l-133 -193q185 -148 322 -290zM546 1222q-96 96 -333 282l-142 -187q186 -156 330 -300zM1792 -220v233h-503v387h422v228h-422v312h471v225 h-432l56 45q-153 163 -335 326l-199 -151q148 -140 222 -220h-519v-225h469v-312h-437v-228h437v-387h-542v-233h1312z" />
<glyph unicode="&#xf05b;" d="M1452 254h340v179h-1031q30 56 45 88h708v604h-1250v-604h264q-14 -32 -43 -88h-485v-179h384l-55 -85q-11 -19 -11 -37q0 -26 20 -46t38 -23q129 -13 332 -52q-340 -76 -676 -76l49 -191q629 23 912 149l36 16q488 -122 568 -163l138 215q-117 39 -429 114 q91 88 146 179zM1007 120q-246 53 -384 79l33 55h499q-66 -83 -148 -134zM1259 767v-99h-745v99h745zM514 881v98h745v-98h-745zM1773 988v403h-758v145h-261v-145h-748v-420h217v240h1341v-223h209z" />
<glyph unicode="&#xf067;" horiz-adv-x="1408" d="M1408 800v-192q0 -40 -28 -68t-68 -28h-416v-416q0 -40 -28 -68t-68 -28h-192q-40 0 -68 28t-28 68v416h-416q-40 0 -68 28t-28 68v192q0 40 28 68t68 28h416v416q0 40 28 68t68 28h192q40 0 68 -28t28 -68v-416h416q40 0 68 -28t28 -68z" />
<glyph unicode="&#xf068;" horiz-adv-x="1408" d="M1408 800v-192q0 -40 -28 -68t-68 -28h-1216q-40 0 -68 28t-28 68v192q0 40 28 68t68 28h1216q40 0 68 -28t28 -68z" />
<glyph unicode="&#xf069;" horiz-adv-x="1664" d="M1600 486q46 -26 59.5 -77.5t-12.5 -97.5l-64 -110q-26 -46 -77.5 -59.5t-97.5 12.5l-266 153v-307q0 -52 -38 -90t-90 -38h-128q-52 0 -90 38t-38 90v307l-266 -153q-46 -26 -97.5 -12.5t-77.5 59.5l-64 110q-26 46 -12.5 97.5t59.5 77.5l266 154l-266 154 q-46 26 -59.5 77.5t12.5 97.5l64 110q26 46 77.5 59.5t97.5 -12.5l266 -153v307q0 52 38 90t90 38h128q52 0 90 -38t38 -90v-307l266 153q46 26 97.5 12.5t77.5 -59.5l64 -110q26 -46 12.5 -97.5t-59.5 -77.5l-266 -154z" />
<glyph unicode="&#xf128;" horiz-adv-x="1024" d="M804 280v-240q0 -16 -12 -28t-28 -12h-240q-16 0 -28 12t-12 28v240q0 16 12 28t28 12h240q16 0 28 -12t12 -28zM1120 880q0 -54 -15.5 -101t-35 -76.5t-55 -59.5t-57.5 -43.5t-61 -35.5q-41 -23 -68.5 -65t-27.5 -67q0 -17 -12 -32.5t-28 -15.5h-240q-15 0 -25.5 18.5 t-10.5 37.5v45q0 83 65 156.5t143 108.5q59 27 84 56t25 76q0 42 -46.5 74t-107.5 32q-65 0 -108 -29q-35 -25 -107 -115q-13 -16 -31 -16q-12 0 -25 8l-164 125q-13 10 -15.5 25t5.5 28q160 266 464 266q80 0 161 -31t146 -83t106 -127.5t41 -158.5z" />
</font>
</defs>
</svg>
